<?xml version="1.0" standalone="no"?>
<!DOCTYPE svg PUBLIC "-//W3C//DTD SVG 1.1//EN" "http://www.w3.org/Graphics/SVG/1.1/DTD/svg11.dtd" >
<!--
2016-5-25: Created with FontForge (http://fontforge.org)
-->
<svg xmlns="http://www.w3.org/2000/svg" xmlns:xlink="http://www.w3.org/1999/xlink" version="1.1">
<metadata>
Created by FontForge 20150603 at Wed May 25 04:19:55 2016
 By icons8

</metadata>
<defs>
<font id="iGloo-All" horiz-adv-x="512" >
  <font-face 
    font-family="iGloo-All"
    font-weight="400"
    font-stretch="normal"
    units-per-em="512"
    panose-1="2 0 5 3 0 0 0 0 0 0"
    ascent="448"
    descent="-64"
    bbox="-0.756609 -66.75 517.462 450"
    underline-thickness="25.6"
    underline-position="-51.2"
    unicode-range="U+0020-F406"
  />
    <missing-glyph />
    <glyph glyph-name="space" unicode=" " horiz-adv-x="200" 
 />
    <glyph glyph-name="football-2-filled" unicode="&#xf24b;" horiz-adv-x="492" 
d="M246 438c136 0 246 -110 246 -246s-110 -246 -246 -246s-246 110 -246 246s110 246 246 246zM441 79c16 27 26 57 29 90l-57 66l-55 -30l-36 -110l32 -36zM138 59l32 36l-37 114l-54 26l-57 -66c3 -32 13 -63 29 -90zM413 342c-21 24 -47 43 -77 56l-80 -34v-66l98 -72
l52 28zM156 398c-30 -13 -57 -31 -78 -55l8 -89l54 -26l96 70v66zM199 -28c15 -3 31 -5 47 -5s32 2 47 5l45 75l-32 35h-120l-32 -35z" />
    <glyph glyph-name="code" unicode="&#xf1e3;" horiz-adv-x="427" 
d="M43 384h341c23 0 43 -20 43 -43v-298c0 -23 -20 -43 -43 -43h-341c-23 0 -43 20 -43 43v298c0 23 20 43 43 43zM43 299v-256h341v256h-341zM213 256h43l-43 -171h-42zM104 237l35 -24l-28 -42l30 -42l-35 -25l-38 55l-9 12l8 12zM323 237l36 -54l8 -12l-8 -12l-36 -54
l-36 23l28 43l-28 42z" />
    <glyph glyph-name="squats" unicode="&#xf371;" horiz-adv-x="345" 
d="M148 448c33 0 59 -26 59 -59s-26 -59 -59 -59s-59 26 -59 59s26 59 59 59zM95 310h34h59h128c16 0 29 -13 29 -29s-13 -30 -29 -30h-153l-41 -98h66c27 -1 45 -31 33 -56l-63 -139c-6 -12 -17 -22 -33 -22c-26 0 -44 27 -34 51l41 87h-43h-19h-10c-41 0 -72 43 -56 82
l56 131c6 14 19 23 35 23z" />
    <glyph glyph-name="circled-chevron-up-filled" unicode="&#xf1c5;" horiz-adv-x="471" 
d="M236 428c130 0 235 -106 235 -236s-105 -236 -235 -236s-236 106 -236 236s106 236 236 236zM345 154c4 4 4 11 0 15l-102 102c-4 4 -11 4 -15 0l-102 -102c-4 -4 -4 -11 0 -15s10 -4 14 0l96 95l95 -95c2 -2 4 -3 7 -3s5 1 7 3z" />
    <glyph glyph-name="unlock-2-filled" unicode="&#xf3c9;" horiz-adv-x="307" 
d="M154 407c55 0 100 -39 110 -91c0 -1 1 -2 1 -3c0 -6 -5 -10 -11 -10c-5 0 -10 4 -10 9c-8 42 -45 75 -90 75c-51 0 -93 -42 -93 -93v-41c26 19 58 31 93 31c85 0 153 -68 153 -153s-68 -154 -153 -154s-154 69 -154 154c0 40 16 77 41 104v59c0 62 51 113 113 113z
M154 161c-17 0 -31 -13 -31 -30c0 -13 8 -25 20 -29v-23c0 -6 5 -10 11 -10s10 4 10 10v23c12 4 20 16 20 29c0 17 -13 30 -30 30z" />
    <glyph glyph-name="foul" unicode="&#xf24d;" horiz-adv-x="379" 
d="M31 448h205c17 0 30 -14 30 -31v-151l105 -148v-1c9 -15 10 -33 4 -49v0v0l-43 -100v0v-1c-9 -19 -27 -31 -48 -31h-68c-66 0 -123 48 -135 113v0v1l-2 40h-48c-17 0 -31 13 -31 30v297c0 17 14 31 31 31zM31 428c-6 0 -11 -5 -11 -11v-297c0 -6 5 -10 11 -10h46l-7 126
v0v0c0 18 11 35 29 42c6 2 11 3 17 3c17 -1 32 -12 37 -29v-1l46 -141h37c6 0 10 4 10 10v126v14c0 1 -1 2 -1 3s1 2 1 3v151c0 6 -4 11 -10 11h-205zM110 260c-2 0 -2 0 -4 -1c-10 -4 -16 -12 -16 -22v-1l11 -184v-1c11 -55 59 -95 115 -95h68c12 0 23 8 29 20v0l43 100v0
c4 10 4 21 -2 31l-88 123v-110c0 -17 -13 -30 -30 -30h-30l5 -14v-4c0 -6 -4 -10 -10 -10c-4 0 -9 3 -10 7l-57 176h-1c-3 10 -13 17 -23 15z" />
    <glyph glyph-name="settings-2" unicode="&#xf332;" horiz-adv-x="474" 
d="M207 429h59l12 -70c17 -4 34 -11 48 -20l57 42l42 -42l-41 -58c9 -14 16 -30 20 -47l70 -12v-59l-70 -13c-4 -17 -11 -33 -20 -47l42 -57l-42 -42l-58 41c-14 -9 -30 -16 -47 -20l-13 -70h-59l-12 70c-17 4 -33 10 -47 19l-58 -40l-42 42l41 57c-9 15 -15 31 -19 48
l-70 12v59l70 12c4 17 10 32 19 47l-40 58l41 42l58 -41c14 9 31 15 48 19zM237 321c-71 0 -129 -58 -129 -129s58 -129 129 -129s129 58 129 129s-58 129 -129 129zM237 289c54 0 97 -43 97 -97s-43 -97 -97 -97s-97 43 -97 97s43 97 97 97zM236 233c-23 0 -40 -18 -40 -41
s17 -41 40 -41s42 18 42 41s-19 41 -42 41z" />
    <glyph glyph-name="skype-filled" unicode="&#xf356;" 
d="M146 448c26 0 52 -7 74 -20c13 2 26 3 39 3c135 0 244 -109 244 -242c0 -16 -2 -32 -5 -48c9 -19 14 -40 14 -61c0 -80 -65 -144 -146 -144c-23 0 -46 5 -66 15c-14 -2 -27 -3 -41 -3c-135 0 -245 108 -245 241c0 15 1 30 4 45c-12 21 -18 46 -18 70c0 80 65 144 146 144
zM257 352c-26 0 -50 -4 -69 -11c-20 -7 -35 -18 -45 -31c-11 -14 -16 -30 -16 -47c0 -18 5 -34 15 -46s23 -22 40 -29c16 -7 38 -13 62 -18c18 -4 32 -8 43 -11c10 -3 19 -7 25 -13s9 -13 9 -22c0 -12 -6 -21 -18 -29s-28 -12 -47 -12c-14 0 -26 2 -34 6s-14 9 -19 15
s-10 14 -14 23s-9 15 -14 20c-6 5 -12 7 -20 7c-10 0 -19 -3 -25 -9s-10 -13 -10 -21c0 -14 5 -28 15 -42s23 -26 39 -34c22 -12 50 -17 84 -17c28 0 52 4 73 12s37 21 48 36s16 33 16 52c0 16 -3 29 -9 40s-16 21 -27 28s-24 13 -40 18c-15 5 -32 9 -51 13
c-15 3 -26 6 -33 8c-6 2 -13 4 -19 7s-11 7 -14 11s-5 8 -5 13c0 9 5 17 15 23c10 7 23 9 40 9c18 0 32 -3 40 -9s15 -14 21 -25c5 -9 10 -15 14 -19c5 -4 11 -6 20 -6c10 0 18 3 24 10s10 14 10 22c0 9 -3 18 -8 27s-13 17 -23 25s-23 14 -38 19s-34 7 -55 7z" />
    <glyph glyph-name="sleep" unicode="&#xf357;" horiz-adv-x="443" 
d="M12 448h216v-47l-147 -178h152v-51h-233v48l148 177h-136v51zM286 290h155v-33l-106 -126h108v-37h-167v33l106 128h-96v35zM87 113h139v-31l-94 -115h98v-31h-151v31l95 113h-87v33z" />
    <glyph glyph-name="settings-3" unicode="&#xf333;" horiz-adv-x="426" 
d="M137 405c4 0 6 -2 6 -4l8 -32c9 -2 18 -7 22 -13l28 17c2 2 6 0 8 -2l32 -40c2 -2 2 -7 0 -9l-24 -21c0 -4 3 -9 3 -13v-13l32 -17c2 -2 4 -7 2 -9l-19 -46c-2 -4 -7 -4 -9 -4l-32 10c-6 -4 -12 -11 -21 -15v-32c0 -4 -2 -6 -6 -6l-52 -7c-2 0 -6 2 -6 4l-6 32
c-9 2 -18 8 -22 14l-28 -18c-2 -2 -6 0 -8 2l-32 41c-2 2 -2 7 0 9l23 21c0 4 -2 9 -2 13v12l-30 16c-4 2 -4 6 -4 8l21 47c0 4 5 4 7 4l29 -9c6 4 13 12 22 16v32c0 4 2 6 6 6zM119 327c-28 -2 -46 -28 -42 -54c2 -28 27 -49 55 -45c28 2 47 27 43 53c-2 28 -28 50 -56 46z
M322 217c2 0 7 -2 7 -4l6 -30c6 -2 15 -6 21 -10l26 15c4 0 7 -1 9 -3l27 -38c2 -4 2 -6 0 -8l-23 -20c0 -4 2 -8 2 -12v-13l26 -15c2 0 4 -4 2 -6l-20 -43c0 -2 -4 -2 -6 -2l-28 8c-6 -6 -13 -11 -19 -15v-30c0 -4 -2 -6 -4 -6l-47 -4c-2 0 -6 2 -6 4l-7 30
c-6 2 -15 6 -21 10l-26 -14c-4 0 -6 0 -8 2l-28 38c-2 4 -2 7 0 9l23 19c0 4 -2 9 -2 13v13l-25 14c-2 0 -4 5 -2 7l18 43c0 2 5 2 7 2l28 -9c6 6 13 11 19 15v30c0 4 2 6 4 6zM305 141c-26 -2 -42 -26 -40 -52s25 -42 51 -40c26 4 44 25 40 51c-2 26 -25 43 -51 41z" />
    <glyph glyph-name="class-2" unicode="&#xf1d7;" horiz-adv-x="416" 
d="M32 336h16h320h16v-16v-240h32v-32h-416v32h32v240v16zM64 304v-224h288v224h-288zM292 252l24 -24l-80 -80l-12 -10l-12 10l-52 53l-36 -37l-24 24l48 48l12 10l12 -10l52 -53zM272 128h64v-32h-64l-16 16z" />
    <glyph glyph-name="download-from-the-cloud-2" unicode="&#xf222;" 
d="M235 384c72 0 131 -45 156 -108c67 -4 121 -59 121 -127c0 -70 -58 -128 -128 -128h-256c-70 0 -128 58 -128 128c0 51 30 93 73 114c22 69 86 121 162 121zM235 341c-60 0 -110 -42 -124 -98l-3 -10l-11 -4c-32 -12 -54 -44 -54 -80c0 -47 38 -85 85 -85h256
c47 0 85 38 85 85s-38 86 -85 86c1 0 0 -1 -5 -1l-17 -1l-5 16c-16 53 -64 92 -122 92zM213 256h43v-85h37l-58 -80l-59 80h37v85z" />
    <glyph glyph-name="banknotes-filled" unicode="&#xf128;" horiz-adv-x="510" 
d="M435 439l53 -196h22v-95v-102v0v-69h-77h-1h-295h-1h-77v69v0v57l-34 128c0 1 -1 2 -1 3l-24 89l103 27v0l229 62v0zM343 393c-2 0 -4 0 -6 -1l-229 -61c-17 -5 -20 -18 -23 -36c-1 -7 -2 -14 -5 -19c-3 -6 -10 -11 -17 -16c-12 -9 -20 -15 -19 -23l15 -55v61h107v0h5
c-7 45 17 87 57 98c44 12 90 -18 103 -67c3 -10 4 -21 4 -31h68v0h64l-27 100c-2 8 -13 9 -28 11c-9 1 -18 2 -24 5c-5 3 -8 8 -13 14c-10 13 -19 21 -32 20zM397 312c14 0 25 -12 25 -26s-11 -26 -25 -26s-26 12 -26 26s12 26 26 26zM166 223c-18 0 -24 -11 -31 -28
c-3 -7 -6 -13 -10 -17c-5 -5 -13 -8 -21 -11c-14 -6 -24 -11 -24 -19v-42v-1v0v-59c0 -4 7 -7 15 -10c6 -2 11 -4 15 -8c3 -3 6 -8 8 -13c5 -12 9 -18 19 -18h295c10 0 14 6 19 18c2 5 5 10 8 13c4 4 9 6 15 8c8 3 15 6 15 10v102c0 8 -10 13 -24 19c-8 3 -16 6 -21 11
c-4 4 -7 10 -10 17c-7 17 -13 28 -31 28h-237zM284 202c45 0 82 -41 82 -92s-37 -92 -82 -92s-81 41 -81 92s36 92 81 92zM136 131c14 0 26 -12 26 -26s-12 -26 -26 -26s-26 12 -26 26s12 26 26 26zM433 131c14 0 26 -12 26 -26s-12 -26 -26 -26s-26 12 -26 26s12 26 26 26z
" />
    <glyph glyph-name="voice-presentation" unicode="&#xf3df;" horiz-adv-x="513" 
d="M390 438c74 0 123 -54 123 -108c0 -34 -18 -61 -42 -79s-54 -28 -81 -28s-57 10 -81 28s-42 45 -42 79c0 22 8 48 28 70s52 38 95 38zM390 417c-38 0 -64 -13 -80 -30s-23 -40 -23 -57c0 -27 14 -48 34 -63s47 -24 69 -24s49 9 69 24s33 36 33 63c0 42 -37 87 -102 87z
M174 305c18 0 33 -5 43 -16c15 -3 27 -10 34 -20c8 -11 11 -23 12 -36c2 -23 -4 -44 -8 -58c4 -5 7 -12 6 -21c-1 -11 -5 -18 -9 -24c-2 -3 -4 -4 -7 -5c-2 -9 -4 -18 -8 -25c-2 -4 -5 -8 -7 -11c-1 -1 -2 -3 -3 -4c0 -10 0 -18 1 -29c3 -6 8 -11 18 -16
c11 -5 26 -11 40 -17s29 -14 41 -26s21 -28 22 -50v-11h-10h-328h-11l1 11c1 22 9 38 21 50s28 20 42 26s28 12 39 17c10 5 17 10 20 16c1 11 0 19 0 29c-1 1 -2 3 -3 4c-2 3 -5 7 -7 11c-4 7 -6 16 -8 25c-3 1 -6 2 -8 5c-4 6 -8 13 -9 24c-1 10 2 16 6 21
c-8 31 -10 62 1 86c11 26 38 43 79 44zM174 284c-35 -1 -52 -12 -60 -31s-7 -46 1 -77l2 -8l-7 -4c1 1 -3 -1 -2 -8c1 -8 4 -11 5 -13l1 -2h9l1 -9c1 -7 3 -16 7 -23c2 -3 3 -6 5 -8c1 -1 2 -3 2 -3h1l5 -3v-6c0 -12 0 -23 -1 -37v-1l-1 -1c-5 -14 -17 -23 -30 -29
s-27 -11 -40 -17s-26 -12 -35 -21c-7 -7 -10 -16 -13 -27h302c-3 11 -7 20 -14 27c-9 9 -21 15 -34 21s-28 11 -41 17s-24 15 -29 29l-1 1v1c-1 14 -1 25 -1 37v6l6 3s1 1 2 3c2 2 3 5 5 8c3 7 6 16 7 23l1 9h8l1 2s4 5 5 13c1 7 -3 9 -2 8l-7 5l3 7c4 11 10 35 8 55
c-1 10 -3 20 -8 26s-11 10 -23 12l-5 1l-3 4c-3 5 -13 10 -30 10v0zM349 212c22 0 41 -14 41 -35s-19 -36 -41 -36s-41 15 -41 36s19 35 41 35zM349 192c-12 0 -21 -8 -21 -15s9 -16 21 -16s20 9 20 16s-8 15 -20 15zM298 141c8 0 14 -3 20 -7s10 -11 10 -19s-4 -15 -10 -19
s-12 -6 -20 -6s-15 2 -21 6s-10 11 -10 19s4 15 10 19s13 7 21 7zM298 120c-4 0 -7 -1 -9 -2s-2 -2 -2 -3s0 -1 2 -2s5 -3 9 -3s6 2 8 3s2 1 2 2s0 2 -2 3s-4 2 -8 2z" />
    <glyph glyph-name="santas-hat" unicode="&#xf328;" 
d="M254 409c69 0 132 -26 174 -80c5 1 10 1 15 1c38 0 69 -31 69 -69s-31 -69 -69 -69s-69 31 -69 69c0 8 2 14 4 21c-38 5 -50 -27 8 -169c9 -1 17 -4 23 -10c8 -7 9 -16 11 -22c2 -8 4 -19 6 -31s4 -25 5 -28c3 -11 1 -23 -5 -31s-15 -13 -23 -15c-10 -2 -82 -20 -186 -20
c-103 0 -175 17 -188 20c-8 2 -17 7 -23 15s-6 20 -5 29c2 13 7 46 11 61c4 13 13 24 26 29c8 131 110 299 216 299zM443 290c-17 0 -30 -12 -30 -29s13 -30 30 -30s30 13 30 30s-13 29 -30 29zM54 74c-2 0 -3 -2 -4 -4c-2 -6 -9 -45 -11 -56c8 -2 79 -19 178 -19
s165 16 176 19c-2 8 -3 18 -5 29c-2 12 -5 25 -6 27s-1 3 -1 4h-3c0 0 -18 -4 -45 -9s-64 -11 -116 -11s-90 6 -116 11s-44 9 -47 9z" />
    <glyph glyph-name="settings-6" unicode="&#xf337;" 
d="M216 448h9h61h9l1 -8l12 -68c13 -4 27 -9 39 -16l55 40l7 5l6 -6l44 -43l6 -6l-5 -7l-40 -57c7 -12 12 -25 16 -38l67 -11l9 -1v-9v-61v-9l-8 -1l-68 -12c-4 -13 -9 -26 -16 -38l40 -56l5 -7l-6 -6l-43 -44l-6 -6l-7 5l-57 40c-12 -7 -25 -12 -38 -16l-12 -68l-1 -8h-9
h-61h-9l-1 9l-11 67c-14 4 -27 9 -39 16l-56 -40l-7 -5l-6 6l-43 44l-6 6l5 7l39 55c-7 12 -12 26 -16 39l-67 12l-8 1v9v61v9l9 1l67 11c4 13 8 27 15 39l-39 56l-5 7l6 6l44 43l6 6l7 -5l55 -39c12 7 26 11 39 15l11 67zM234 428l-11 -64l-1 -7l-7 -2
c-16 -4 -32 -11 -46 -19l-5 -3l-6 4l-53 37l-31 -31l37 -53l4 -5l-3 -6c-9 -14 -16 -29 -20 -46l-1 -7l-7 -1l-64 -11v-44l64 -11l7 -1l1 -7c4 -17 11 -32 20 -46l3 -5l-4 -6l-37 -52l31 -32l53 37l6 4l5 -3c14 -9 30 -15 46 -19l7 -2l1 -7l10 -64h45l11 65l1 6l7 2
c16 4 31 10 45 19l6 4l6 -4l53 -38l31 31l-38 53l-4 6l4 6c8 14 15 29 19 45l1 7l7 1l65 11v44l-65 11l-7 1l-1 7c-4 16 -11 31 -19 45l-4 6l4 6l38 53l-32 31l-52 -38l-6 -4l-6 4c-14 9 -29 15 -45 19l-7 2l-1 6l-11 65h-44zM256 284c51 0 92 -41 92 -92s-41 -92 -92 -92
s-92 41 -92 92s41 92 92 92zM256 264c-40 0 -72 -32 -72 -72s32 -72 72 -72s72 32 72 72s-32 72 -72 72z" />
    <glyph glyph-name="banknotes-2" unicode="&#xf127;" horiz-adv-x="511" 
d="M403 425l52 -148h-36l-20 56l-17 7c-2 -1 -3 -2 -5 -3c-14 -5 -29 2 -34 15c-1 2 -1 3 -1 5l-17 8l-226 -80l-4 -8h-32v-59l-2 -4l2 -7v-102l-63 179zM357 299c11 0 20 -7 24 -17c1 -2 0 -3 0 -5h-52c2 9 7 17 17 20c4 1 7 2 11 2zM244 294c18 1 36 -5 48 -17h-89
c6 6 14 10 23 13c6 2 12 4 18 4zM85 256h426v-256h-426v256zM179 225l-14 -14c0 -2 1 -2 1 -4c0 -14 -13 -26 -28 -26c-2 0 -3 1 -5 1l-14 -13v-82l14 -13c2 0 3 1 5 1c15 0 28 -12 28 -26c0 -2 -1 -2 -1 -4l14 -14h238l14 14c0 2 -1 2 -1 4c0 14 13 26 28 26c2 0 3 -1 5 -1
l14 13v82l-14 13c-2 0 -3 -1 -5 -1c-15 0 -28 12 -28 26c0 2 1 2 1 4l-14 14h-238zM299 187c35 0 64 -26 64 -59s-29 -59 -64 -59s-64 26 -64 59s29 59 64 59zM181 153c15 0 28 -11 28 -25s-13 -25 -28 -25s-28 11 -28 25s13 25 28 25zM415 153c15 0 28 -11 28 -25
s-13 -25 -28 -25s-28 11 -28 25s13 25 28 25z" />
    <glyph glyph-name="to-do-filled" unicode="&#xf3a3;" horiz-adv-x="514" 
d="M125 448h1c11 0 20 -9 20 -20c0 -3 -1 -9 -3 -12l-64 -95c-3 -5 -11 -9 -17 -9c-5 0 -13 3 -16 7l-40 48c-3 3 -6 10 -6 15c0 11 9 20 20 20c6 0 15 -4 18 -9l22 -27l48 73c3 5 11 9 17 9zM206 387h308v-41h-308v41zM125 274h1c11 0 20 -9 20 -20c0 -3 -1 -9 -3 -12
l-64 -95c-3 -5 -11 -10 -17 -10c-5 0 -13 4 -16 8l-40 48c-3 3 -5 10 -5 14c0 11 9 20 20 20c6 0 14 -3 17 -8l22 -27l48 73c3 5 11 9 17 9zM206 212h308v-40h-308v40zM125 79h1c11 0 20 -9 20 -20c0 -4 -1 -9 -3 -12l-64 -95c-3 -5 -11 -9 -17 -9c-5 0 -13 3 -16 7l-40 48
c-3 3 -5 10 -5 14c0 11 9 20 20 20c6 0 14 -3 17 -8l22 -27l48 73c3 4 10 8 15 9h2zM206 18h308v-41h-308v41z" />
    <glyph glyph-name="mind-map" unicode="&#xf2c1;" 
d="M64 448c35 0 64 -29 64 -64c0 -14 -4 -26 -12 -37l73 -73c18 15 41 25 67 25c15 0 29 -3 42 -9l25 44c-15 12 -24 30 -24 50c0 35 29 64 64 64s64 -29 64 -64s-29 -64 -64 -64c-7 0 -14 2 -21 4l-25 -45c28 -19 46 -51 46 -87v-1l24 -3c8 27 32 47 61 47
c35 0 64 -29 64 -64s-29 -64 -64 -64c-34 0 -61 27 -63 60l-25 2c-5 -24 -19 -44 -37 -59l35 -52c8 4 17 6 26 6c35 0 64 -29 64 -64s-29 -64 -64 -64s-64 29 -64 64c0 18 8 35 20 47l-35 51c-15 -8 -31 -13 -49 -13c-26 0 -49 10 -67 25l-73 -73c8 -11 12 -23 12 -37
c0 -35 -29 -64 -64 -64s-64 29 -64 64s29 64 64 64c14 0 26 -4 37 -12l73 73c-15 18 -25 41 -25 67s10 49 25 67l-73 73c-11 -8 -23 -12 -37 -12c-35 0 -64 29 -64 64s29 64 64 64z" />
    <glyph glyph-name="idea-filled" unicode="&#xf27a;" horiz-adv-x="307" 
d="M154 417c85 0 153 -68 153 -153c0 -59 -25 -87 -46 -108c-14 -15 -25 -26 -25 -46v-51h-72v149l38 38c4 4 4 11 0 15s-11 4 -15 0l-33 -34l-34 34c-4 4 -11 4 -15 0s-4 -11 0 -15l38 -38v-149h-71v51c0 14 -10 24 -23 38c-21 22 -49 53 -49 116c0 85 69 153 154 153z
M72 38h164v-30c0 -17 -14 -31 -31 -31h-12c-5 -18 -20 -31 -39 -31s-35 13 -40 31h-12c-17 0 -30 14 -30 31v30z" />
    <glyph glyph-name="webcam-2" unicode="&#xf3ec;" horiz-adv-x="426" 
d="M213 444c30 0 59 -7 85 -18l12 -6c69 -35 116 -106 116 -189c0 -104 -75 -191 -174 -209v-27h99c11 0 19 -9 19 -20v-39h-315v39s1 20 20 20h99v27c-99 18 -174 105 -174 209c0 83 47 154 116 189l12 6c26 11 55 18 85 18zM213 425c-25 0 -49 -6 -71 -15
c19 -17 44 -27 71 -27s52 10 71 27c-22 9 -46 15 -71 15zM213 336c-58 0 -105 -47 -105 -105s47 -104 105 -104s105 46 105 104s-47 105 -105 105zM213 287c31 0 55 -25 55 -56s-24 -55 -55 -55s-55 24 -55 55c0 11 3 21 8 29c-1 -3 -2 -5 -2 -8c0 -15 13 -28 29 -28
s27 13 27 28c0 16 -11 28 -27 28c-3 0 -6 0 -9 -1c8 5 18 8 29 8z" />
    <glyph glyph-name="webcam-3" unicode="&#xf3ed;" horiz-adv-x="430" 
d="M215 438c119 0 215 -96 215 -215c0 -73 -37 -138 -93 -177c17 -4 31 -9 43 -15c8 -4 15 -8 20 -13s9 -13 9 -21c0 -12 -8 -21 -19 -28s-25 -12 -42 -17c-35 -10 -81 -15 -133 -15s-98 5 -133 15c-17 5 -31 10 -42 17s-19 16 -19 28c0 8 4 16 9 21s13 9 21 13
c11 6 25 11 42 15c-56 39 -93 104 -93 177c0 119 96 215 215 215zM215 417c-108 0 -195 -86 -195 -194s87 -195 195 -195s195 87 195 195s-87 194 -195 194zM215 346c68 0 123 -55 123 -123s-55 -123 -123 -123s-123 55 -123 123s55 123 123 123zM215 325
c-57 0 -102 -45 -102 -102s45 -103 102 -103s102 46 102 103s-45 102 -102 102zM215 305c45 0 82 -37 82 -82s-37 -82 -82 -82s-82 37 -82 82s37 82 82 82zM215 284c-34 0 -61 -27 -61 -61s27 -62 61 -62s61 28 61 62s-27 61 -61 61zM118 31c-25 -4 -45 -10 -59 -17
c-7 -3 -12 -7 -15 -10s-4 -5 -4 -7s3 -6 11 -11s20 -11 36 -15c32 -9 78 -15 128 -15s96 6 128 15c16 4 29 10 37 15s10 9 10 11s-1 4 -4 7s-8 7 -15 10c-14 7 -34 13 -59 17c-29 -15 -62 -23 -97 -23s-68 8 -97 23z" />
    <glyph glyph-name="collaboration-filled" unicode="&#xf1e7;" horiz-adv-x="513" 
d="M175 448c71 0 123 -43 123 -102c0 -67 -63 -103 -123 -103c-61 0 -123 35 -123 101c0 42 33 104 123 104zM318 417c71 0 123 -43 123 -102c0 -67 -63 -103 -123 -103c-24 0 -55 7 -80 23c45 18 80 56 80 111c0 26 -8 51 -23 70c7 1 15 1 23 1zM42 274c23 0 41 -16 41 -36
s-18 -36 -41 -36s-41 16 -41 36s18 36 41 36zM472 264c23 0 41 -16 41 -36s-18 -36 -41 -36s-41 16 -41 36s18 36 41 36zM128 202c16 0 27 -4 34 -11c11 -2 20 -9 26 -18c13 -20 6 -50 2 -64c3 -4 5 -10 4 -17c-2 -14 -7 -20 -12 -23c-2 -10 -7 -20 -13 -26v-2
c0 -6 -1 -11 0 -17c4 -7 16 -11 29 -16c24 -9 57 -22 59 -61c2 39 35 52 59 61c13 5 24 9 28 16c1 6 1 12 1 18v1c-6 6 -11 16 -13 26c-5 3 -10 9 -12 23c-1 7 0 13 3 17c-7 31 -4 55 8 71c11 14 29 22 53 22c16 0 27 -4 34 -11c11 -2 20 -9 26 -18c13 -20 6 -50 2 -64
c3 -4 5 -10 4 -17c-2 -13 -7 -20 -12 -23c-2 -10 -7 -20 -13 -26v-1c0 -6 -1 -12 0 -18c4 -7 15 -11 28 -16c24 -9 58 -22 60 -61v-11h-256h-1h-256l1 11c2 39 35 52 59 61c13 5 24 9 28 16c1 6 1 12 1 18v1c-6 6 -11 16 -13 26c-5 3 -10 9 -12 23c-1 7 0 13 3 17
c-7 31 -4 55 8 71c11 14 29 22 53 22zM21 182c11 0 21 -8 21 -16s-10 -15 -21 -15s-20 7 -20 15s9 16 20 16zM492 172c11 0 21 -8 21 -16s-10 -15 -21 -15s-20 7 -20 15s9 16 20 16z" />
    <glyph glyph-name="settings-4" unicode="&#xf335;" horiz-adv-x="415" 
d="M366 171l44 -34c4 -4 5 -11 3 -15l-43 -75c-2 -4 -9 -6 -13 -4l-51 23c-11 -9 -23 -15 -38 -21l-7 -56c0 -6 -5 -10 -11 -10h-85c-6 0 -11 4 -11 10l-6 56c-13 4 -27 12 -38 21l-52 -23c-4 -2 -10 0 -12 6l-43 75c-4 6 -2 13 2 15l45 32c-2 6 -2 15 -2 21s2 15 2 21
l-45 34c-6 2 -6 9 -2 15l43 75c2 4 8 6 12 4l52 -21c11 9 23 15 38 21l6 54c0 6 5 10 11 10h85c6 0 11 -4 11 -10l7 -56c13 -4 27 -12 38 -21l51 23c4 2 11 0 13 -6l43 -75c4 -6 1 -13 -3 -15l-44 -32c2 -6 2 -15 2 -21s-2 -15 -2 -21zM208 107c47 0 85 38 85 85
s-38 85 -85 85s-86 -38 -86 -85s39 -85 86 -85z" />
    <glyph glyph-name="settings-5" unicode="&#xf336;" horiz-adv-x="479" 
d="M241 448c49 0 48 -5 48 -5c6 -29 13 -49 17 -60c25 -9 47 -21 67 -38c12 2 31 5 58 14c0 0 3 3 27 -40s21 -44 21 -44c-20 -18 -33 -33 -41 -42c3 -13 4 -27 4 -41c0 -16 -2 -30 -5 -45c8 -10 21 -24 40 -42c0 0 4 -3 -21 -45s-29 -39 -29 -39c-26 9 -45 14 -57 16
c-20 -16 -43 -30 -68 -38c-4 -11 -9 -30 -15 -58c0 0 0 -5 -49 -5s-48 5 -48 5c-6 29 -12 49 -16 60c-25 9 -48 21 -68 38c-12 -2 -31 -5 -58 -14c0 0 -3 -3 -27 40s-21 44 -21 44c20 18 33 33 41 42c-3 13 -4 27 -4 41c0 16 2 30 5 45c-8 10 -21 24 -40 42c0 0 -3 3 22 45
s28 39 28 39c26 -9 46 -14 58 -16c20 16 42 30 67 38c4 11 10 30 16 58c0 0 -1 5 48 5zM240 363c-94 0 -171 -77 -171 -171s77 -171 171 -171s170 77 170 171s-76 171 -170 171zM240 341c82 0 149 -67 149 -149s-67 -149 -149 -149s-150 67 -150 149s68 149 150 149z
M240 277c-47 0 -86 -38 -86 -85s39 -85 86 -85s85 38 85 85s-38 85 -85 85z" />
    <glyph glyph-name="presentation" unicode="&#xf302;" horiz-adv-x="471" 
d="M8 428h1v0h1v0h451c6 0 10 -5 10 -11v-41c0 -6 -4 -10 -10 -10h-10v-317c0 -6 -5 -11 -11 -11h-194v-22c12 -4 20 -16 20 -29c0 -17 -13 -31 -30 -31s-31 14 -31 31c0 13 8 25 20 29v22h-194c-6 0 -11 5 -11 11v317h-10c-6 0 -10 4 -10 10v41v0c0 5 3 10 8 11zM20 407
v-20h9h413h9v20h-431zM41 366v-307h192h2h2h193v307h-389zM172 305h1v0h1v0c34 0 62 -28 62 -62c0 -6 -5 -10 -11 -10h-51c-6 0 -10 4 -10 10v51v1c0 5 3 9 8 10zM184 282v-29h29c-4 14 -15 25 -29 29zM143 274c6 0 11 -4 11 -10v-41h41c6 0 10 -5 10 -11
c0 -34 -28 -61 -62 -61s-61 27 -61 61s27 62 61 62zM263 274h1v0h1v0h1v0h113v0c6 0 10 -4 10 -10s-4 -11 -10 -11v0h-113h-1c-6 0 -11 5 -11 11c0 5 4 9 9 10zM133 252c-18 -5 -31 -21 -31 -40c0 -23 18 -40 41 -40c19 0 34 12 39 30h-39c-6 0 -10 4 -10 10v40zM263 223h1
v0h1v0h1v0h113v0c6 0 10 -5 10 -11s-4 -10 -10 -10v0h-113h-1c-6 0 -11 4 -11 10c0 5 4 10 9 11zM263 172h1v0h1v0h1v0h113v0c6 0 10 -5 10 -11s-4 -10 -10 -10v0h-113h-1c-6 0 -11 4 -11 10c0 5 4 10 9 11zM235 -3c-5 0 -10 -5 -10 -10c0 -6 5 -10 11 -10s10 4 10 10
s-4 10 -10 10h-1v0z" />
    <glyph glyph-name="dna-helix-filled" unicode="&#xf220;" horiz-adv-x="338" 
d="M10 428h31c6 0 10 -5 10 -11c0 -111 44 -157 98 -192c-4 -2 -7 -4 -11 -6c-13 -7 -25 -15 -38 -23c-52 38 -100 95 -100 221c0 6 4 11 10 11zM297 428h31c6 0 10 -5 10 -11c0 -166 -84 -215 -158 -259c-69 -41 -129 -75 -129 -191c0 -6 -4 -11 -10 -11h-31
c-6 0 -10 5 -10 11c0 149 75 192 148 234c12 7 25 14 37 22h-11h-1c-6 0 -10 4 -10 10c0 5 4 10 9 10h1v0h1v0h40c8 6 15 14 22 21h-109h-1c-6 0 -10 4 -10 10c0 5 4 10 9 10h1v0h1v0h124h1v0c4 6 8 14 12 21h-162h-1c-6 0 -10 4 -10 10c0 5 4 10 9 10h1v0h1v0h171
c2 6 4 14 6 21h-191h-1c-6 0 -10 4 -10 10c0 5 4 10 9 10h1v0h1v0h195c1 7 1 14 2 21h-203h-1c-6 0 -10 4 -10 10c0 5 4 10 9 10v0h1v0h1h204c0 3 1 6 1 10c0 6 4 11 10 11zM238 171l3 -2c48 -34 97 -84 97 -202c0 -6 -4 -11 -10 -11h-31c-6 0 -10 5 -10 11c0 4 -1 7 -1 10
h-204h-1c-6 0 -10 4 -10 10c0 5 4 10 9 10v0h1v0h1h203l-3 21h-194h-1c-6 0 -10 4 -10 10c0 5 4 10 9 10h1v0h1v0h188c-2 7 -5 15 -8 21h-160v0c-6 0 -11 4 -11 10c0 5 5 10 10 10v0h1v0v0h148c-5 7 -11 15 -17 21h-91v0c-6 0 -11 4 -11 10c0 5 5 10 10 10v0h1v0v0h68
c-6 4 -12 9 -18 13l-10 7h2c16 9 32 20 48 31z" />
    <glyph glyph-name="bench-press" unicode="&#xf130;" 
d="M138 428c54 0 98 -44 98 -98c0 -47 -33 -88 -78 -97v-61h51c18 0 37 -1 55 -3l130 -16h79c10 0 20 -3 28 -11s11 -19 11 -29v-128v0c0 -16 -14 -30 -30 -30s-29 14 -29 30v0v109h-59h-34h-202c-22 0 -40 17 -40 39v100c-45 9 -79 50 -79 97c0 54 45 98 99 98zM138 389
c-33 0 -59 -26 -59 -59s26 -59 59 -59s59 26 59 59s-26 59 -59 59zM138 350c11 0 20 -9 20 -20s-9 -20 -20 -20s-20 9 -20 20s9 20 20 20zM49 192c27 0 49 -22 49 -49s-22 -49 -49 -49s-49 22 -49 49s22 49 49 49zM0 74h414v-40h-414v40z" />
    <glyph glyph-name="linkedin-3" unicode="&#xf2a4;" horiz-adv-x="352" 
d="M40 368h272c22 0 40 -18 40 -40v-272c0 -22 -18 -40 -40 -40h-272c-22 0 -40 18 -40 40v272c0 22 18 40 40 40zM40 336c-5 0 -8 -3 -8 -8v-272c0 -5 3 -8 8 -8h272c5 0 8 3 8 8v272c0 5 -3 8 -8 8h-272zM87 308c15 0 27 -12 27 -27s-12 -27 -27 -27s-27 12 -27 27
s12 27 27 27zM232 236c48 0 56 -31 56 -72v-84h-47v74c0 18 -1 40 -25 40c-25 0 -28 -19 -28 -39v-75h-47v152h45v-21h1c6 12 22 25 45 25zM64 232h48v-152h-48v152z" />
    <glyph glyph-name="linkedin-2" unicode="&#xf2a3;" 
d="M416 448c53 0 96 -43 96 -96v-320c0 -53 -43 -96 -96 -96h-320c-53 0 -96 43 -96 96v320c0 53 43 96 96 96h320zM158 13v239h-80l1 -239h79zM117 283c27 0 43 18 43 40c0 23 -17 40 -43 40s-44 -17 -44 -40c0 -22 17 -40 43 -40h1zM434 13v0v139c0 71 -38 104 -89 104
c-41 0 -59 -22 -69 -38v34h-81l1 -239h80v135c0 7 1 14 3 19c6 14 18 28 39 28c28 0 36 -21 36 -52v-130h80z" />
    <glyph glyph-name="delete-filled" unicode="&#xf210;" horiz-adv-x="385" 
d="M30 383l162 -162l163 162l29 -29l-163 -162l164 -163l-29 -29l-164 163l-163 -163l-29 28l163 164l-162 162z" />
    <glyph glyph-name="toggle-on" unicode="&#xf3a6;" 
d="M138 330h236c10 0 19 -1 28 -3c4 -1 9 -2 13 -3v0c8 -3 17 -7 25 -11c20 -11 37 -26 49 -44c2 -4 4 -7 6 -11c4 -8 8 -16 11 -25v0c3 -8 4 -18 5 -27c0 -5 1 -9 1 -14c0 -10 -1 -19 -3 -28c-1 -4 -2 -9 -3 -13c-1 -5 -3 -9 -5 -13l-6 -12c-11 -20 -26 -36 -44 -48
s-40 -21 -63 -23c-5 0 -9 -1 -14 -1h-236c-76 0 -138 62 -138 138s62 138 138 138zM374 290c-55 0 -98 -43 -98 -98s43 -98 98 -98s99 43 99 98s-44 98 -99 98z" />
    <glyph glyph-name="facebook" unicode="&#xf22f;" 
d="M465 448c26 0 47 -21 47 -47v-418c0 -26 -21 -47 -47 -47h-124v213h75l11 64h-86v49c0 19 18 37 37 37h27v64h-64c-64 0 -85 -33 -85 -86v-64h-64v-64h64v-213h-209c-26 0 -47 21 -47 47v418c0 26 21 47 47 47h418z" />
    <glyph glyph-name="faq-filled" unicode="&#xf234;" 
d="M225 448h246c23 0 41 -18 41 -41v-164c0 -19 -13 -35 -31 -39v-63c0 -4 -2 -7 -6 -9c-1 -1 -3 -1 -4 -1c-2 0 -5 0 -7 2l-79 69h-160c-23 0 -41 18 -41 41v164c0 23 18 41 41 41zM338 386l-26 -118h19l6 31h22l6 -31h19l-25 118h-21zM348 366h1c1 -8 2 -19 4 -26l5 -27
h-19l5 27c1 7 3 18 4 26zM41 253h123v-10c0 -34 27 -61 61 -61h103v-133c0 -23 -18 -41 -41 -41h-160l-79 -69c-2 -2 -5 -3 -7 -3c-1 0 -3 0 -4 1c-4 2 -6 5 -6 9v63c-18 4 -31 21 -31 40v163c0 23 18 41 41 41zM160 192c-24 0 -37 -25 -37 -60c0 -40 13 -60 35 -60
c1 0 3 -1 5 -2c7 -4 19 -10 28 -14l7 14c-7 2 -16 5 -23 8v1c11 6 19 24 19 55c0 32 -9 58 -34 58zM159 177c11 0 15 -20 15 -43c0 -25 -4 -45 -15 -45c-12 0 -17 20 -17 45c0 22 5 43 17 43z" />
    <glyph glyph-name="lock-2-filled" unicode="&#xf2aa;" horiz-adv-x="307" 
d="M154 407c62 0 112 -51 112 -113v-59c25 -27 41 -64 41 -104c0 -85 -68 -154 -153 -154s-154 69 -154 154c0 40 16 77 41 104v59c0 62 51 113 113 113zM154 387c-51 0 -93 -42 -93 -93v-41c26 19 58 31 93 31s66 -12 92 -31v41c0 51 -41 93 -92 93zM154 161
c-17 0 -31 -13 -31 -30c0 -13 8 -25 20 -29v-23c0 -6 5 -10 11 -10s10 4 10 10v23c12 4 20 16 20 29c0 17 -13 30 -30 30z" />
    <glyph glyph-name="ticket" unicode="&#xf3a0;" horiz-adv-x="509" 
d="M504 289c8 -8 8 -19 0 -27l-54 -55c0 1 -1 1 -2 2l-7 7c-4 4 -9 4 -13 0s-4 -10 0 -14l6 -6c1 -1 1 -2 2 -2l-251 -251c-8 -8 -20 -8 -28 0l-33 33c9 11 14 24 14 39c0 34 -26 61 -60 61c-15 0 -29 -6 -40 -15l-32 33c-8 8 -8 19 0 27l252 253c0 -2 1 -3 2 -4l7 -7
c2 -2 4 -3 7 -3s5 1 7 3c4 4 4 10 0 14l-7 6c-1 1 -2 3 -4 3l55 54c8 8 20 8 28 0l32 -32c-9 -11 -14 -24 -14 -39c0 -34 27 -61 61 -61c15 0 27 5 38 14zM314 329c4 4 4 10 0 14l-6 7c-4 4 -10 4 -14 0s-4 -10 0 -14l6 -7c2 -2 4 -2 7 -2s5 0 7 2zM348 296c4 4 4 10 0 14
l-7 7c-4 4 -10 4 -14 0s-4 -10 0 -14l7 -7c2 -2 4 -3 7 -3s5 1 7 3zM381 262c4 4 4 10 0 14l-6 7c-4 4 -10 4 -14 0s-4 -10 0 -14l6 -7c2 -2 4 -2 7 -2s5 0 7 2zM415 229c4 4 4 10 0 14l-7 7c-4 4 -10 4 -14 0s-4 -10 0 -14l7 -7c2 -2 4 -3 7 -3s5 1 7 3z" />
    <glyph glyph-name="sun-filled" unicode="&#xf385;" horiz-adv-x="432" 
d="M216 407h1c6 0 10 -4 10 -10v0v-62v0c0 -6 -4 -10 -10 -10s-11 4 -11 10v0v62v0c0 5 4 9 8 10h2zM70 347v0h1h1c2 0 5 -1 7 -3l44 -44c2 -2 3 -4 3 -7c0 -6 -4 -11 -10 -11c-3 0 -6 2 -8 4l-43 44c-2 2 -4 5 -4 7c0 5 4 9 9 10zM360 347h2c6 0 10 -4 10 -10
c0 -2 -1 -5 -3 -7l-44 -44c-2 -2 -5 -4 -8 -4c-6 0 -10 5 -10 11c0 3 2 5 4 7l43 44c1 1 4 3 6 3zM217 294c56 0 102 -46 102 -102s-46 -102 -102 -102s-103 46 -103 102s47 102 103 102zM9 202v0h1v0h1v0h1h61v0c6 0 11 -4 11 -10s-5 -10 -11 -10v0h-61h-2
c-6 0 -10 4 -10 10c0 5 4 9 9 10zM357 202h1v0h1v0v0h1h61h1c6 0 10 -4 10 -10s-4 -10 -10 -10h-1h-61h-1c-6 0 -11 4 -11 10c0 5 4 9 9 10zM114 101h1v0v0c6 0 11 -4 11 -10c0 -2 -1 -5 -3 -7l-44 -44c-2 -2 -5 -4 -8 -4c-6 0 -10 4 -10 10c0 3 2 6 4 8l43 44c1 1 4 3 6 3z
M316 101v0h1v0h1c2 0 5 -1 7 -3l44 -44c2 -2 3 -5 3 -8c0 -6 -4 -10 -10 -10c-3 0 -6 2 -8 4l-43 44c-2 2 -4 5 -4 7c0 5 4 9 9 10zM216 59h1c6 0 10 -4 10 -10v0v-62v0c0 -6 -4 -10 -10 -10s-11 4 -11 10v0v62v0c0 5 4 9 8 10h2z" />
    <glyph glyph-name="cool" unicode="&#xf1f3;" horiz-adv-x="514" 
d="M257 444c112 0 207 -72 240 -173c9 -1 17 -10 17 -20c0 -6 -3 -13 -8 -16c2 -14 3 -28 3 -43c0 -139 -113 -252 -252 -252s-252 113 -252 252c0 15 1 29 3 43c-5 3 -8 10 -8 16c0 10 8 19 17 20c33 101 128 173 240 173zM257 405c-95 0 -174 -62 -202 -147
c8 -2 16 -4 25 -5c2 17 16 18 88 18c26 0 44 -2 55 -8c10 4 21 5 33 5s23 -2 34 -6c11 7 29 9 56 9c72 0 86 -1 88 -18c9 1 18 3 26 5c-28 85 -108 147 -203 147zM256 233c-7 0 -13 -1 -19 -3c-1 -57 -37 -76 -69 -76c-27 0 -69 13 -83 59h-5c-11 1 -22 3 -34 6
c-1 -9 -2 -18 -2 -27c0 -117 96 -213 213 -213s213 96 213 213c0 9 -1 18 -2 27c-12 -3 -23 -5 -34 -6h-5c-14 -46 -56 -59 -83 -59c-32 0 -68 19 -69 76c-6 2 -14 3 -21 3zM394 141c-20 -60 -67 -84 -137 -84c-40 0 -75 3 -75 30c0 23 35 5 75 5c60 0 100 -3 137 49z" />
    <glyph glyph-name="school" unicode="&#xf32a;" horiz-adv-x="416" 
d="M208 384l208 -48v-32l-208 48l-208 -48v32zM112 288c47 0 88 -16 96 -19c8 3 49 19 96 19c52 0 102 -21 102 -21l10 -5v-10v-212v-24v0h-180c-6 -10 -16 -16 -28 -16s-22 6 -28 16h-180v0v24v212v10l10 5s50 21 102 21zM112 256c-35 0 -68 -12 -80 -16v-178
c19 6 46 14 80 14c33 0 62 -8 80 -14v178c-16 5 -49 16 -80 16zM304 256c-31 0 -64 -11 -80 -16v-178c18 6 47 14 80 14c34 0 61 -8 80 -14v178c-12 4 -45 16 -80 16z" />
    <glyph glyph-name="smartphone-tablet" unicode="&#xf35e;" 
d="M30 448h315c16 0 29 -14 29 -30v-108h-39v89c0 5 -5 10 -10 10h-276c-5 0 -10 -5 -10 -10v-355c0 -5 5 -10 10 -10h207v-59h-226c-16 0 -30 14 -30 30v413c0 16 14 30 30 30zM173 435c-4 0 -7 -3 -7 -7s3 -6 7 -6h28c4 0 7 2 7 6s-3 7 -7 7h-28zM305 290h177
c16 0 30 -13 30 -29v-295c0 -16 -14 -30 -30 -30h-177c-16 0 -29 14 -29 30v295c0 16 13 29 29 29zM380 278c-4 0 -7 -3 -7 -7s3 -7 7 -7h28c4 0 7 3 7 7s-3 7 -7 7h-28zM325 251c-5 0 -10 -5 -10 -10v-236c0 -5 5 -10 10 -10h138c5 0 10 5 10 10v236c0 5 -5 10 -10 10h-138
zM187 22c-10 0 -18 -7 -18 -17s8 -17 18 -17s18 7 18 17s-8 17 -18 17zM394 -17c-10 0 -18 -7 -18 -17s8 -18 18 -18s18 8 18 18s-8 17 -18 17z" />
    <glyph glyph-name="marker-pen" unicode="&#xf2b6;" horiz-adv-x="508" 
d="M425 444c4 0 7 -1 10 -4l68 -68c5 -5 6 -15 1 -21l-250 -290l-130 130l290 250c3 3 7 3 11 3zM110 176l129 -129l-43 -43c-8 -8 -18 -3 -29 0s-44 14 -72 -14l-43 43c29 29 19 54 14 71c-3 11 -8 21 0 29zM38 18l43 -43l-15 -14l-66 19z" />
    <glyph glyph-name="leaderboard-2" unicode="&#xf29d;" 
d="M195 356h122c17 0 31 -14 31 -31v-102h133c17 0 31 -14 31 -31v-152c0 -6 -4 -10 -10 -10h-492c-6 0 -10 4 -10 10v193c0 17 14 31 31 31h133v61c0 17 14 31 31 31zM195 335c-6 0 -11 -4 -11 -10v-72c0 -6 -4 -10 -10 -10h-143c-6 0 -11 -4 -11 -10v-182h472v141
c0 6 -5 10 -11 10h-143c-6 0 -10 4 -10 10v113c0 6 -5 10 -11 10h-122zM254 305h12v-82h-16v57h-16v11h1c5 0 10 1 13 3s5 6 6 11zM97 212c8 0 15 -2 19 -6s6 -9 6 -16c0 -3 0 -5 -1 -7c0 -2 -1 -4 -2 -6s-2 -4 -4 -6l-7 -7l-9 -9l-6 -6c0 -2 -1 -4 -1 -5h31v-13h-51
c0 4 0 7 1 10l3 9c1 3 3 6 6 8c2 3 5 5 8 8l7 6l4 5c1 1 2 3 3 4s2 3 2 4v6c0 7 -4 10 -9 10c-2 0 -4 0 -5 -1l-3 -3c-1 -1 -1 -3 -1 -5v-6h-16v3c0 8 2 13 6 17s10 6 19 6zM416 172c7 0 13 -3 17 -6s6 -8 6 -16c0 -5 -1 -9 -3 -12s-5 -5 -9 -6c5 -1 9 -4 11 -7s3 -8 3 -13
c0 -3 0 -5 -1 -8s-2 -5 -4 -8c-2 -2 -5 -4 -8 -6c-3 -1 -8 -2 -13 -2c-8 0 -15 2 -18 6c-4 4 -6 10 -6 18h17c-2 -3 -1 -6 0 -9c1 -2 4 -4 7 -4c2 0 4 0 5 1l3 3c1 1 1 3 1 4v5v5c0 2 -1 3 -2 4l-3 3c-1 1 -3 1 -5 1h-5v12h5c2 0 3 0 4 1l3 3c1 1 1 2 2 4c0 2 1 3 1 5
c0 4 -1 7 -2 8c-1 2 -3 2 -6 2c-2 0 -3 0 -4 -1l-3 -3c-1 -1 -1 -3 -1 -4v-5h-16c0 8 2 14 6 18s11 7 18 7z" />
    <glyph glyph-name="school-2" unicode="&#xf32b;" 
d="M255 417h1c1 0 4 0 5 -1l245 -123c3 -2 6 -5 6 -9c0 -6 -4 -10 -10 -10c-1 0 -4 0 -5 1l-241 121l-241 -121c-1 -1 -4 -1 -5 -1c-6 0 -10 4 -10 10c0 4 3 7 6 9l246 123c1 0 2 1 3 1zM143 284c38 0 68 -8 88 -16c12 -5 20 -9 25 -12c5 3 13 7 25 12c20 8 50 16 88 16
s67 -8 87 -16s31 -16 31 -16c2 -2 4 -5 4 -8v-216h1v-41c0 -6 -5 -10 -11 -10h-179c-2 -3 -3 -4 -8 -8c-8 -6 -20 -13 -38 -13s-30 7 -38 13c-5 4 -5 5 -7 8h-180c-6 0 -10 4 -10 10v41v0v216c0 3 2 6 4 8c0 0 11 8 31 16s49 16 87 16zM143 264c-36 0 -62 -7 -80 -14
c-15 -6 -20 -10 -22 -12v-203c5 3 5 4 14 8c20 8 49 16 88 16s69 -8 89 -16c9 -4 9 -5 14 -8v203c-2 2 -7 6 -22 12c-18 7 -45 14 -81 14zM369 264c-36 0 -63 -7 -81 -14c-15 -6 -20 -10 -22 -12v-203c5 3 5 4 14 8c20 8 50 16 89 16s68 -8 88 -16c9 -4 9 -5 14 -8v203
c-2 2 -7 6 -22 12c-18 7 -44 14 -80 14zM143 39c-36 0 -62 -8 -80 -15c-12 -5 -18 -9 -22 -11v-16h174v0c4 0 7 -2 9 -5c0 0 1 -3 6 -7s13 -8 26 -8s21 4 26 8s6 7 6 7c2 3 5 5 9 5v0h174v16c-4 2 -10 6 -22 11c-18 7 -44 15 -80 15s-63 -8 -81 -15s-26 -14 -26 -14l-1 -1v0
v0v0h-1v0c-1 0 -2 -1 -3 -1h-1v0v0h-1v0v0v0h-1v0v0v0h-1v0v1h-1v0v0h-1v1v0v0h-1v0v0s-8 7 -26 14s-45 15 -81 15z" />
    <glyph glyph-name="inspection" unicode="&#xf289;" horiz-adv-x="410" 
d="M121 448v0h1v0h1h164c6 0 10 -4 10 -10v-10h82c17 0 31 -14 31 -31v-430c0 -17 -14 -31 -31 -31h-348c-17 0 -31 14 -31 31v430c0 17 14 31 31 31h82v10v0c0 5 3 9 8 10zM133 428v-21v-20v-21h143v41v21h-143zM31 407c-6 0 -11 -4 -11 -10v-430c0 -6 5 -11 11 -11h348
c6 0 10 5 10 11v430c0 6 -4 10 -10 10h-82v-20h61h11v-11v-389v-10h-11h-307h-10v10v389v11h10h62v20h-82zM61 366v-369h287v369h-51v-10c0 -6 -4 -10 -10 -10h-164c-6 0 -10 4 -10 10v10h-52zM284 257l17 -11l-6 -8l-90 -140l-6 -10l-9 8l-64 58l-7 7l13 15l8 -7l55 -49
l83 129z" />
    <glyph glyph-name="sleigh-2" unicode="&#xf35c;" 
d="M58 274h106c41 0 69 -26 79 -62c6 -21 13 -46 23 -64c5 -9 10 -16 16 -21s11 -7 18 -7h43c6 0 14 3 23 11s21 23 36 45c10 14 17 25 26 33s21 14 33 14c31 0 51 -26 51 -52c0 -16 -13 -30 -29 -30c-8 0 -15 4 -20 9c-9 -19 -23 -49 -31 -68v0v0c-5 -13 -13 -27 -25 -37
s-29 -17 -49 -17h-6c7 -19 27 -54 79 -61h21c16 0 29 13 29 29c0 5 -2 10 -4 14c-1 1 -1 4 -1 6c0 5 5 10 10 10v0c3 0 7 -3 9 -6c4 -7 7 -15 7 -24c0 -26 -20 -47 -46 -49c-1 0 -1 -1 -2 -1h-2h-432v0c-6 0 -10 4 -10 10c0 5 5 11 10 11v0v0h41c1 0 6 1 12 5s12 9 18 16
c10 11 18 26 21 40h-12c-25 0 -50 13 -65 36s-21 55 -6 91c8 20 11 34 10 42s-4 11 -7 13c-7 4 -20 3 -20 3h-2c-6 0 -10 4 -10 10c0 27 24 51 58 51zM58 253c-19 0 -29 -9 -33 -20c6 -1 12 -1 18 -5c8 -5 15 -16 16 -29s-2 -30 -11 -52c-12 -30 -7 -54 4 -71s30 -27 48 -27
h21h2h2h211h1h2h1h18c16 0 27 5 36 12s14 18 19 29c10 24 33 73 39 86c2 3 5 5 9 5c5 0 9 -4 10 -8c0 -1 2 -4 5 -7s7 -4 7 -4c5 0 9 4 9 9c0 16 -11 31 -31 31c-8 0 -12 -1 -18 -7s-14 -17 -24 -31c-15 -22 -28 -38 -40 -48s-24 -16 -36 -16h-43c-12 0 -23 5 -32 12
s-15 17 -21 27c-11 21 -18 46 -24 67c-8 30 -26 47 -59 47h-106zM132 28c-3 -20 -13 -39 -25 -53l-8 -8h277c-29 20 -41 47 -46 61h-198z" />
    <glyph glyph-name="banana-filled" unicode="&#xf121;" horiz-adv-x="446" 
d="M358 439l2 -10s1 -7 3 -17c1 -3 2 -7 3 -11v0c1 -4 2 -8 4 -12c1 -3 3 -6 5 -9v-2l1 -1c2 -4 4 -7 6 -10v-1l4 -4v0l4 -4s2 -2 4 -3s5 -3 7 -5v0c2 -2 5 -4 8 -6c1 0 0 -1 1 -1l7 -7l3 -3c2 -2 3 -4 5 -6s4 -5 5 -7v0c1 -2 3 -4 4 -6c0 -1 1 -1 1 -2c1 -2 1 -3 2 -5
c0 -1 1 -2 1 -3c1 -2 1 -3 2 -5c1 -1 2 -3 2 -5c1 -3 1 -6 2 -10s2 -7 2 -11v-12v-10v-1c0 -3 -1 -7 -1 -10s0 -7 -1 -11s-2 -7 -3 -11s-1 -7 -2 -11l-1 -1c0 -2 -1 -2 -1 -4c-1 -3 -1 -5 -2 -8l-1 -1c-1 -4 -2 -7 -4 -11c-1 -2 -1 -3 -2 -5c-1 -3 -3 -5 -4 -8v0
c-2 -4 -5 -9 -7 -13l-3 -6s-3 -5 -4 -7s-3 -5 -5 -7c-1 -2 -2 -4 -4 -6c-2 -3 -4 -5 -6 -8l-2 -2c-3 -4 -7 -8 -10 -12s-6 -8 -10 -12c-1 -1 -2 -3 -3 -4s-2 -1 -3 -2l-12 -12c-5 -5 -10 -11 -16 -16c-4 -4 -9 -7 -13 -10l-12 -9l-1 -1c-8 -6 -16 -12 -24 -17
c-1 -1 -3 -2 -4 -3c-7 -4 -13 -8 -20 -12c-24 -14 -47 -25 -69 -34c-15 -6 -28 -10 -41 -14c-2 0 -3 -2 -5 -2c-18 -5 -34 -8 -47 -10c-5 -1 -9 -2 -13 -2c-8 -1 -14 -1 -19 -1h-2v0c-5 0 -8 -1 -10 -1h-4c-6 0 -12 3 -18 5c-3 1 -7 2 -10 4c-1 0 0 1 -1 1c-3 1 -6 3 -8 4
l-3 1l-12 20l-3 4l2 4c1 3 3 9 5 14c1 2 0 1 1 3v0c1 3 3 6 4 9c1 1 1 3 2 4l2 2s1 3 2 4v0c1 2 3 4 5 5c6 5 11 10 17 14l1 1c3 3 7 6 10 8c2 2 5 4 7 6c4 3 9 6 13 9c5 4 10 7 15 10c19 12 35 21 51 30c2 1 4 3 6 4c13 7 26 15 39 23c1 1 2 1 3 2c7 4 13 9 20 14
c1 0 1 1 2 1c3 3 6 5 10 8l1 1c4 3 8 7 12 10s7 6 11 9l10 10v0c3 3 5 6 8 9l1 1c3 3 6 6 8 9v1l2 2c2 2 3 5 5 7l6 9c7 11 12 21 16 30c1 1 1 2 2 3v1c1 1 0 4 1 5c1 3 3 7 4 10c3 9 5 16 6 22l1 1c1 4 2 7 3 10v1l3 6c0 1 1 3 1 4c1 2 1 3 2 4c1 2 3 5 4 7c1 1 0 2 1 3
c1 2 1 2 2 3v1v0c1 2 2 3 3 4l1 1c1 1 1 2 1 2c-1 21 -16 44 -23 55v0c-2 3 -4 5 -4 5l-7 9l9 6s1 1 3 2v1c1 1 3 1 4 2c7 4 19 10 34 12zM367 330c-6 0 -10 -4 -10 -10c0 -44 -12 -130 -96 -203c-50 -44 -80 -57 -118 -73c-32 -14 -49 -16 -107 -53c-5 -3 -6 -9 -3 -14
l3 -3c1 0 2 -2 3 -2v0h2c2 0 4 1 6 2c56 36 73 39 104 52c40 17 70 30 123 76c90 79 104 170 104 218c0 6 -5 10 -11 10z" />
    <glyph glyph-name="instagram" unicode="&#xf28c;" 
d="M68 448h376c38 0 68 -30 68 -68v-376c0 -38 -30 -68 -68 -68h-376c-38 0 -68 30 -68 68v376c0 38 30 68 68 68zM68 405c-15 0 -25 -10 -25 -25v-103h108c27 27 64 43 105 43s78 -16 105 -43h108v103c0 15 -10 25 -25 25h-376zM369 384h72c4 0 7 -3 7 -7v-72
c0 -4 -3 -6 -7 -6h-72c-4 0 -6 2 -6 6v72c0 4 2 7 6 7zM256 277c-60 0 -107 -46 -107 -106s47 -107 107 -107s107 47 107 107s-47 106 -107 106zM256 235c36 0 64 -28 64 -64s-28 -64 -64 -64s-64 28 -64 64c0 6 2 13 2 19c6 -11 17 -19 30 -19c17 0 32 15 32 32
c0 13 -8 26 -19 30c6 0 13 2 19 2z" />
    <glyph glyph-name="stop-sign" unicode="&#xf37c;" horiz-adv-x="513" 
d="M155 428h204c19 0 35 -11 45 -27v0l103 -182v-1v0c9 -16 9 -36 0 -52v0v-1l-103 -182c-9 -17 -26 -27 -45 -27h-204c-19 0 -37 10 -46 27l-102 182v1v0c-9 16 -9 36 0 52v0v1l102 182c9 17 27 27 46 27zM155 407c-12 0 -23 -6 -28 -16v0v0l-102 -182c-6 -10 -6 -24 0 -34
l102 -182v0v0c5 -10 16 -16 28 -16h204c12 0 22 6 27 16v0v0l103 182c6 10 6 24 0 34l-102 181l-1 1c-7 10 -15 16 -27 16h-204zM111 246c33 0 38 -23 38 -33h-18c0 13 -11 19 -21 19c-17 0 -19 -10 -19 -13c0 -24 61 -8 61 -47c0 -31 -35 -32 -40 -32c-40 0 -42 31 -42 37
h17v-1c0 -4 0 -22 26 -22c20 0 21 14 21 16c0 27 -60 8 -60 47c0 11 8 29 37 29zM297 246c35 0 48 -29 48 -53c0 -38 -25 -53 -48 -53c-37 0 -48 34 -48 53c0 36 24 53 48 53zM161 244h81v-15h-32v-87h-17v87h-32v15zM365 244h44c7 0 33 -1 33 -32c0 -22 -14 -31 -33 -31
h-27v-39h-17v102zM297 232c-17 0 -31 -13 -31 -39c0 -29 16 -39 31 -39c16 0 31 12 31 39s-16 39 -31 39zM382 230v-35h26c2 0 17 0 17 17s-15 18 -17 18h-26z" />
    <glyph glyph-name="twitter-3" unicode="&#xf3c3;" horiz-adv-x="384" 
d="M384 311c-11 -16 -24 -30 -39 -41v-10c0 -104 -79 -224 -224 -224c-44 0 -86 13 -121 35c6 -1 13 -1 19 -1c37 0 71 13 98 34c-34 1 -64 24 -74 55c5 -1 10 -2 15 -2c7 0 14 1 21 3c-36 7 -64 39 -64 77v1c11 -6 23 -10 36 -10c-21 14 -35 39 -35 66c0 14 4 28 11 40
c39 -48 97 -80 162 -83c-1 6 -2 12 -2 18c0 44 35 79 79 79c23 0 43 -10 57 -25c18 4 35 10 50 19c-6 -18 -18 -33 -34 -43c16 2 31 6 45 12z" />
    <glyph glyph-name="play-2" unicode="&#xf2fd;" horiz-adv-x="344" 
d="M0 394l15 -9l314 -184l15 -9l-15 -9l-314 -184l-15 -9v18v368v18zM20 358v-332l283 166z" />
    <glyph glyph-name="shopping-cart-loaded" unicode="&#xf34c;" horiz-adv-x="492" 
d="M19 428v0h1v0v0h69c16 0 29 -5 38 -13s14 -20 18 -33v0v0l22 -88h19v1l87 86c1 1 4 4 6 4h1c2 0 5 -2 7 -4l34 -33l34 33c1 1 4 4 6 4h1c2 0 5 -2 7 -4l87 -86v-1h25v0c6 0 11 -4 11 -10c0 -1 -1 -2 -1 -3l-74 -195c-1 -4 -5 -7 -9 -7v0h-188l7 -27v-1
c3 -11 6 -20 10 -25s10 -8 26 -8h3h154c6 0 10 -4 10 -10c0 -1 -1 -3 -1 -4c7 -7 11 -16 11 -27c0 -22 -19 -41 -41 -41c-23 0 -41 19 -41 41c0 8 2 14 6 20h-63c4 -6 6 -12 6 -20c0 -22 -19 -41 -41 -41c-23 0 -41 19 -41 41c0 10 4 19 10 26c-5 3 -9 6 -13 10
c-9 10 -12 21 -15 33l-82 331c-3 11 -7 19 -12 23s-11 7 -24 7h-48c0 -11 -10 -20 -21 -20s-20 9 -20 20c0 10 8 19 18 20zM280 360l-65 -66h131l-28 29h-1c-3 1 -5 3 -6 6zM362 360l-26 -27l38 -38v-1h54zM172 274l43 -174h186l66 174h-295zM266 -3c-11 0 -20 -9 -20 -20
s9 -21 20 -21s21 10 21 21s-10 20 -21 20zM399 -3c-11 0 -20 -9 -20 -20s9 -21 20 -21s21 10 21 21s-10 20 -21 20z" />
    <glyph glyph-name="discover" unicode="&#xf21e;" horiz-adv-x="448" 
d="M48 352h352c26 0 48 -22 48 -48v-224c0 -26 -22 -48 -48 -48h-352c-26 0 -48 22 -48 48v224c0 26 22 48 48 48zM48 320c-9 0 -16 -7 -16 -16v-224c0 -9 7 -16 16 -16h352c9 0 16 7 16 16v224c0 9 -7 16 -16 16h-352zM135 222c6 0 12 -3 17 -7l-6 -7c-3 3 -6 4 -9 4
c-5 0 -8 -2 -8 -6c0 -3 2 -5 9 -7c13 -5 16 -9 16 -18c0 -11 -9 -19 -20 -19c-8 0 -15 5 -20 12l8 6c3 -5 7 -8 12 -8s8 3 8 8s-4 8 -10 10c-10 4 -14 7 -14 15c0 9 7 17 17 17zM187 222c5 0 9 -2 14 -4v-12c-5 4 -9 6 -14 6c-10 0 -19 -9 -19 -20s9 -19 20 -19
c5 0 9 2 13 6v-13c-5 -2 -9 -4 -14 -4c-17 0 -30 13 -30 30c0 16 13 30 30 30zM234 222c16 0 29 -14 29 -30s-13 -30 -29 -30s-30 14 -30 30s14 30 30 30zM48 220h16c18 0 30 -11 30 -28c0 -9 -5 -28 -30 -28h-16v56zM100 220h10v-56h-10v56zM261 220h12l15 -38l16 38h12
l-25 -58h-6zM320 220h32v-9h-20v-13h19v-9h-19v-15h20v-10h-32v56zM359 220h16c13 0 20 -5 20 -16c0 -9 -5 -14 -13 -16l18 -24h-14l-15 22h-1v-22h-11v56zM370 212v-18h3c7 0 11 3 11 9c0 5 -4 9 -11 9h-3zM59 211v-37h3c20 0 21 14 21 18c0 9 -6 19 -21 19h-3z" />
    <glyph glyph-name="checked-checkbox" unicode="&#xf1a2;" horiz-adv-x="427" 
d="M384 405c23 0 43 -19 43 -42v-342c0 -23 -20 -42 -43 -42h-341c-23 0 -43 19 -43 42v342c0 23 20 42 43 42h341zM156 70l222 216l-30 30l-192 -186l-77 77l-30 -30z" />
    <glyph glyph-name="snow-storm" unicode="&#xf365;" horiz-adv-x="444" 
d="M350 438h1c6 0 10 -4 10 -10v0v-11h5h1c6 0 10 -4 10 -10s-4 -10 -10 -10h-1h-5v-33l29 16l-2 5c-1 1 -2 3 -2 5c0 5 4 9 9 10h2c3 0 6 -2 8 -5l3 -5l9 6c1 1 2 1 3 1h3c6 0 10 -4 10 -10c0 -4 -3 -7 -6 -9l-9 -6l3 -4c1 -1 2 -4 2 -6c0 -6 -4 -10 -10 -10
c-4 0 -9 3 -10 6l-2 4l-29 -16l29 -17l2 4c1 2 4 6 7 6h1v0h1c6 0 10 -5 10 -11c0 -2 0 -4 -1 -5l-3 -4l9 -5c3 -2 5 -6 5 -9c0 -6 -4 -11 -10 -11c-2 0 -4 1 -5 2l-9 5l-3 -5c-1 -3 -5 -6 -9 -6c-6 0 -10 4 -10 10c0 2 1 6 2 7l2 4l-29 17v-34h5h1c6 0 10 -4 10 -10
s-4 -10 -10 -10h-1h-5v-10v0c0 -6 -4 -11 -10 -11s-10 5 -10 11v0v10h-5h-1c-6 0 -10 4 -10 10c0 5 5 10 10 10v0h1h5v34l-29 -17l2 -4c1 -1 2 -5 2 -7c0 -6 -4 -10 -10 -10c-4 0 -8 3 -9 6l-3 5l-9 -5c-1 -1 -3 -2 -5 -2c-6 0 -10 5 -10 11c0 3 2 7 5 9l9 5l-3 4
c-1 1 -1 3 -1 5c0 5 4 10 9 11h1c3 0 7 -3 9 -6l2 -4l29 17l-29 16l-2 -4c-1 -3 -5 -6 -9 -6c-6 0 -11 4 -11 10c0 2 1 5 2 6l3 4l-9 6c-3 2 -6 6 -6 9c0 5 4 9 9 10h2c2 0 4 0 5 -1l9 -6l3 5c1 2 4 4 7 5v0h1v0c6 0 11 -4 11 -10c0 -2 -1 -4 -2 -5l-2 -5l29 -16v33h-5h-1
c-6 0 -10 4 -10 10c0 5 5 10 10 10v0h1h5v11v0c0 5 4 9 8 10h1zM145 397h1c6 0 10 -4 10 -10v0v-54l47 27c1 1 3 1 4 1h2c6 0 10 -4 10 -10c0 -4 -3 -7 -6 -9l-46 -27l46 -27c3 -2 6 -6 6 -9c0 -6 -5 -10 -11 -10c-2 0 -4 0 -5 1l-47 27v-54v0c0 -6 -4 -10 -10 -10
s-10 4 -10 10v0v54l-47 -27c-1 -1 -3 -1 -5 -1c-6 0 -10 4 -10 10c0 3 2 7 5 9l46 27l-46 27c-3 2 -5 6 -5 9c0 5 3 9 8 10h2c2 0 4 0 5 -1l47 -27v54v0c0 5 4 9 8 10h1zM53 213h1c6 0 10 -4 10 -10v-1v-33l28 16c1 1 2 1 3 1h2c6 0 10 -4 10 -10c0 -3 -2 -7 -5 -9l-27 -16
l27 -16c3 -1 6 -5 6 -9c0 -6 -4 -11 -10 -11c-2 0 -5 1 -6 2l-28 16v-33v0c0 -6 -4 -11 -10 -11s-10 5 -10 11v0v33l-28 -16c-1 -1 -4 -2 -6 -2c-6 0 -10 5 -10 11c0 4 3 8 6 9l28 16l-28 16c-3 2 -5 6 -5 9c0 5 4 9 9 10h1c2 0 4 0 5 -1l28 -16v33v0c0 5 4 9 8 10zM404 131
c4 0 8 -3 9 -7l5 -11l11 5c1 0 3 1 4 1v0c6 0 11 -5 11 -11c0 -4 -3 -8 -7 -9l-11 -5l4 -11c1 -1 2 -4 2 -5c0 -6 -5 -10 -11 -10c-4 0 -8 4 -9 8l-5 10l-11 -4c-1 -1 -4 -1 -5 -1c-6 0 -10 4 -10 10c0 4 3 9 7 10l11 4l-4 11c0 1 -1 4 -1 5c0 5 3 9 8 10h2zM166 90h1
c6 0 10 -4 10 -10v-1v-33l27 16c1 1 3 1 4 1h1c6 0 11 -4 11 -10c0 -3 -2 -7 -5 -9l-28 -16l28 -16c3 -1 6 -5 6 -9c0 -6 -4 -10 -10 -10c-2 0 -6 1 -7 2l-27 16v-34v0c0 -6 -4 -10 -10 -10s-11 4 -11 10v0v34l-27 -16c-1 -1 -4 -2 -6 -2c-6 0 -10 4 -10 10c0 4 3 8 6 9
l28 16l-28 16c-3 2 -5 6 -5 9c0 5 3 9 8 10h2c2 0 4 0 5 -1l27 -16v33v1c0 5 4 9 8 10h2zM307 69v0c4 0 9 -2 10 -6l9 -21l21 8c1 0 2 1 3 1s1 1 2 1c6 0 11 -5 11 -11c0 -4 -4 -9 -8 -10l-21 -8l8 -22c1 -1 2 -3 2 -4c0 -6 -5 -11 -11 -11c-4 0 -8 4 -9 8l-9 21l-22 -9
c-1 -1 -3 -1 -4 -1c-6 0 -11 4 -11 10c0 4 4 9 8 10l21 9l-9 21c0 1 -1 3 -1 4c0 4 4 9 8 10h2z" />
    <glyph glyph-name="resize-four-directions" unicode="&#xf313;" horiz-adv-x="510" 
d="M255 447l7 -7l87 -87c2 -2 3 -5 3 -7c0 -6 -4 -11 -10 -11c-2 0 -5 1 -7 3l-70 70v-206h206l-70 70c-2 2 -3 5 -3 7c0 5 3 9 8 10l2 1h1c2 0 5 -2 7 -4l87 -87l7 -7l-7 -7l-87 -87c-2 -2 -5 -3 -7 -3c-6 0 -11 4 -11 10c0 2 1 5 3 7l70 70h-206v-206l70 70c2 2 5 3 7 3
c6 0 10 -5 10 -11c0 -2 -1 -5 -3 -7l-87 -87l-7 -7l-7 7l-87 87c-2 2 -4 6 -4 8c0 5 4 9 9 10h2c2 0 5 -1 7 -3l70 -70v206h-206l70 -70c2 -2 3 -5 3 -7c0 -6 -5 -10 -11 -10c-2 0 -5 1 -7 3l-87 87l-7 7l7 7l87 87c1 1 4 3 6 3h2c6 0 10 -4 10 -10c0 -2 -1 -5 -3 -7
l-70 -70h206v206l-70 -70c-2 -2 -5 -3 -7 -3c-6 0 -10 5 -10 11c0 2 1 5 3 7l87 87z" />
    <glyph glyph-name="water-transportation-filled" unicode="&#xf3e8;" horiz-adv-x="508" 
d="M242 448h20v-51h72c6 0 10 -4 10 -10v-52h51c6 0 11 -4 11 -10v-60l-144 48c-3 1 -7 2 -10 2s-7 -1 -10 -2l-144 -48v60c0 6 5 10 11 10h51v52c0 6 4 10 10 10h72v51zM252 294h3l196 -66c11 -4 19 -11 23 -21s4 -21 -1 -30l-37 -79v-65c-4 2 -8 3 -13 3
c-7 0 -14 -3 -19 -7c-9 -7 -25 -10 -37 -10s-28 3 -37 10c-5 4 -13 7 -20 7s-14 -3 -19 -7c-9 -7 -25 -10 -37 -10s-28 3 -37 10c-5 4 -12 7 -19 7s-15 -3 -20 -7c-9 -7 -25 -10 -37 -10s-28 3 -37 10c-5 4 -12 7 -19 7c-6 0 -12 -1 -17 -5v67l-38 79c-4 10 -4 21 0 31
s12 17 22 20l197 66h3zM165 192c-8 0 -15 -12 -15 -26s7 -25 15 -25s15 11 15 25s-7 26 -15 26zM339 192c-8 0 -15 -12 -15 -26s7 -25 15 -25s15 11 15 25s-7 26 -15 26zM85 16c2 0 5 -1 7 -3c14 -11 35 -15 49 -15s36 4 50 15c4 3 9 3 13 0c14 -11 36 -15 50 -15
s36 4 50 15c4 3 9 3 13 0c14 -11 36 -15 50 -15s35 4 49 15c4 3 10 3 14 0c14 -11 35 -15 49 -15c6 0 11 1 15 3c5 2 11 -1 13 -6s0 -11 -5 -13c-6 -3 -15 -4 -23 -4c-16 0 -39 4 -56 15c-17 -11 -40 -15 -56 -15s-40 4 -57 15c-17 -11 -40 -15 -56 -15s-39 4 -56 15
c-17 -11 -41 -15 -57 -15s-39 4 -56 15c-17 -11 -40 -15 -56 -15c-4 0 -8 1 -12 1h-7c-6 0 -10 4 -10 10s4 10 10 10h9s6 -1 10 -1c14 0 36 4 50 15c2 2 4 3 6 3zM84 -25v0h1c2 0 5 -2 7 -3c13 -11 35 -15 49 -15s37 4 50 15c2 1 5 3 7 3s4 -2 6 -3c13 -11 36 -15 50 -15
s37 4 50 15c2 1 4 3 6 3s5 -2 7 -3c13 -11 36 -15 50 -15s36 4 49 15c2 1 5 3 7 3s5 -2 7 -3c13 -11 35 -15 49 -15c6 0 11 2 15 3c1 0 3 1 4 1c6 0 10 -5 10 -11c0 -4 -2 -8 -6 -9c-7 -3 -15 -4 -23 -4c-15 0 -37 5 -56 17c-19 -12 -41 -17 -56 -17s-38 5 -57 17
c-19 -12 -41 -17 -56 -17s-37 5 -56 17c-19 -12 -42 -17 -57 -17s-37 5 -56 17c-19 -12 -41 -17 -56 -17c-8 0 -15 1 -19 1v0c-6 0 -10 4 -10 10s4 10 10 10v0c6 0 13 -1 19 -1c14 0 37 4 50 15c1 1 3 3 5 3z" />
    <glyph glyph-name="hand-cursor" unicode="&#xf263;" horiz-adv-x="385" 
d="M143 416c26 0 48 -22 48 -48v-67c5 2 10 3 16 3c12 0 23 -4 32 -12c9 8 20 12 32 12c22 0 42 -15 47 -36c6 3 12 4 19 4c26 0 48 -22 48 -48v-125c0 -73 -58 -131 -131 -131h-28c-31 0 -58 11 -80 27v1h-1l-131 130v0c-18 18 -18 50 0 68s49 18 67 0l4 -4l10 -11v189
c0 26 22 48 48 48zM143 384c-9 0 -16 -7 -16 -16v-227v-39l-27 28l-42 41c-7 7 -15 7 -22 0s-7 -15 0 -22l130 -128c17 -13 37 -21 60 -21h28c55 0 99 44 99 99v125c0 9 -7 16 -16 16s-16 -7 -16 -16v-32h-2h-30h-2v64c0 9 -7 16 -16 16s-16 -7 -16 -16v-64h-32v64
c0 9 -7 16 -16 16s-16 -7 -16 -16v-64h-32v64v112c0 9 -7 16 -16 16z" />
    <glyph glyph-name="voice-presentation-filled" unicode="&#xf3e0;" horiz-adv-x="513" 
d="M390 438c77 0 123 -55 123 -108c0 -70 -71 -107 -123 -107c-58 0 -123 44 -123 107c0 42 33 108 123 108zM174 305c21 0 36 -6 45 -16c15 -3 26 -11 34 -23c18 -28 8 -72 3 -90c4 -5 6 -13 5 -22c-2 -19 -10 -26 -16 -30c-3 -14 -10 -32 -18 -40v-3c0 -9 -1 -16 0 -25
c5 -11 23 -19 42 -26c34 -13 77 -30 80 -83v-11h-349l1 11c3 53 45 70 79 83c19 7 38 15 43 26c1 10 0 16 0 25v3c-8 8 -16 25 -19 40c-6 4 -14 11 -16 30c-1 10 2 17 6 22c-10 44 -8 77 9 99c14 19 39 29 71 30zM349 212c23 0 41 -15 41 -35s-18 -36 -41 -36s-41 16 -41 36
s18 35 41 35zM298 141c17 0 30 -12 30 -26s-13 -25 -30 -25s-31 11 -31 25s14 26 31 26z" />
    <glyph glyph-name="christmas-candle-filled" unicode="&#xf1b5;" horiz-adv-x="369" 
d="M184 448c3 0 6 -1 8 -3c7 -7 64 -69 64 -104c0 -34 -22 -67 -72 -67s-72 33 -72 67c0 35 58 97 65 104c2 2 4 3 7 3zM184 365c0 0 -29 -33 -29 -49c0 -14 10 -26 23 -29h12c13 3 24 15 24 29c0 16 -30 49 -30 49zM123 273c15 -12 35 -20 61 -20c7 0 15 1 21 2
c7 -1 15 -2 23 -2c19 0 29 -2 34 -8c5 -5 4 -12 4 -15v-2c0 -4 -2 -8 -4 -14c-3 -7 -6 -16 -6 -27c0 -13 2 -20 5 -26c2 -5 5 -12 5 -21c0 -12 -6 -22 -16 -27c-4 0 -9 1 -12 3c-9 6 -12 21 -13 26c-1 6 -5 10 -11 9s-10 -5 -9 -11c0 -3 3 -27 21 -40c6 -4 13 -7 20 -7v-65
h-133v2c-11 5 -21 17 -21 30c0 8 3 13 6 18c5 10 15 27 15 106c0 20 -4 34 -7 45c-2 7 -4 12 -4 17c0 9 3 23 21 27zM10 8h348c6 0 11 -5 11 -11c0 -22 -28 -44 -75 -60c-1 0 -3 -1 -4 -1h-212c-1 0 -2 1 -3 1c-47 16 -75 38 -75 60c0 6 4 11 10 11z" />
    <glyph glyph-name="clock" unicode="&#xf1db;" horiz-adv-x="506" 
d="M253 445c140 0 253 -113 253 -253s-113 -253 -253 -253s-253 113 -253 253s113 253 253 253zM233 389c-94 -10 -169 -85 -177 -179h10c10 0 18 -8 18 -18s-8 -18 -18 -18h-10c8 -95 84 -171 179 -179v10v0c0 9 7 17 16 18h2c10 0 18 -8 18 -18v0v-10c95 8 171 84 179 179
h-10h-1c-10 0 -18 8 -18 18c0 9 8 18 17 18h1h1h10c-8 95 -84 171 -179 179v-10c0 -10 -8 -18 -18 -18s-18 8 -18 18v10h-2zM253 341c10 0 14 -9 14 -14l4 -103c11 -6 19 -18 19 -32v-1l76 -85c3 -4 5 -15 -4 -24s-18 -5 -22 -2l-84 75c-1 0 -2 -1 -3 -1
c-21 0 -38 17 -38 38c0 13 7 24 18 31l6 104c0 5 4 14 14 14z" />
    <glyph glyph-name="sun" unicode="&#xf383;" horiz-adv-x="515" 
d="M257 449h2c11 0 20 -9 20 -20v-1v-59v0c0 -11 -9 -20 -20 -20s-20 9 -20 20v0v59v1c0 9 8 17 16 19c1 0 1 1 2 1zM138 417h3c6 0 14 -4 17 -10l30 -52c1 -3 2 -7 2 -10c0 -11 -9 -20 -20 -20c-6 0 -14 4 -17 10l-29 52c-2 3 -3 7 -3 10c0 9 8 19 17 20zM373 417h1h1h2
c11 0 20 -9 20 -20c0 -3 -2 -7 -3 -10l-29 -52c-3 -6 -11 -10 -17 -10c-11 0 -20 9 -20 20c0 3 1 7 2 10l30 52c2 4 8 9 13 10zM463 330c1 0 2 1 3 1c11 0 20 -9 20 -20c0 -7 -5 -15 -12 -18l-52 -30c-3 -1 -7 -2 -10 -2c-11 0 -20 9 -20 20c0 6 4 14 10 17l52 29
c2 1 5 3 7 3h2zM51 330h3c3 0 7 -2 10 -3l52 -29c6 -3 10 -11 10 -17c0 -11 -9 -20 -20 -20c-3 0 -7 1 -10 2l-52 30c-6 3 -10 10 -10 17c0 10 7 19 17 20zM259 330c76 0 138 -62 138 -138s-62 -138 -138 -138s-138 62 -138 138s62 138 138 138zM259 290
c-54 0 -98 -44 -98 -98s44 -98 98 -98s98 44 98 98s-44 98 -98 98zM17 212h1h1h1h1h1h1h59v0c11 0 20 -9 20 -20s-9 -20 -20 -20v0h-59h-3c-11 0 -20 9 -20 20c0 10 8 19 17 20zM431 212h1h1v0h1h1h1h59h1c11 0 19 -9 19 -20s-8 -20 -19 -20h-1h-59h-3c-11 0 -19 9 -19 20
c0 10 8 19 17 20zM105 124h3c11 0 20 -9 20 -20c0 -7 -5 -15 -12 -18l-52 -29c-3 -1 -7 -3 -10 -3c-11 0 -20 9 -20 20c0 6 4 14 10 17l52 30c2 1 5 2 7 2c1 0 1 1 2 1zM409 123h3c3 0 7 -1 10 -2l52 -30c6 -3 10 -11 10 -17c0 -11 -9 -20 -20 -20c-3 0 -7 2 -10 3l-52 29
c-6 3 -10 11 -10 18c0 10 7 18 17 19zM167 58h1h1c1 0 1 1 2 1c11 0 19 -9 19 -20c0 -3 -1 -7 -2 -10l-30 -52c-3 -6 -11 -10 -17 -10c-11 0 -20 9 -20 20c0 3 2 7 3 10l29 52c2 4 9 8 14 9zM345 58c1 0 2 1 3 1c6 0 14 -4 17 -10l29 -52c1 -3 3 -7 3 -10
c0 -11 -9 -20 -20 -20c-6 0 -14 4 -17 10l-30 52c-2 3 -2 7 -2 10c0 9 8 18 17 19zM257 35h2c11 0 20 -9 20 -20v0v-59v-1c0 -11 -9 -19 -20 -19s-20 8 -20 19v1v59v0c0 9 8 17 16 19c1 0 1 1 2 1z" />
    <glyph glyph-name="paid-2" unicode="&#xf2ea;" 
d="M254 428h1c2 0 5 -1 7 -3l132 -131h98c5 0 10 -1 14 -5s6 -10 6 -15v-41c0 -5 -2 -11 -6 -15s-9 -6 -14 -6h-2l-57 -182v-1v0c-4 -13 -15 -21 -29 -21h-297c-14 0 -26 9 -30 21v0l-55 183h-2c-5 0 -10 2 -14 6s-6 10 -6 15v41c0 5 2 11 6 15s9 5 14 5h98l130 131
c1 1 4 3 6 3zM255 403l-107 -109h216zM20 274v-41h10c4 0 8 -3 9 -7l58 -190v0c2 -5 5 -8 10 -8h297c5 0 8 4 9 7v0v0l60 191c1 4 5 7 9 7h10v41h-101h-1h-1h-1h-1h-262h-4h-101zM338 217l14 -15l-7 -7l-102 -103l-7 -7l-8 7l-51 52l-7 7l14 14l8 -7l44 -43l95 95z" />
    <glyph glyph-name="palm-tree" unicode="&#xf2ec;" horiz-adv-x="466" 
d="M131 448c32 -1 70 -14 110 -45c0 0 175 137 207 -74c-87 75 -170 46 -183 14c60 23 305 -51 151 -256c-4 126 -102 208 -175 214c-51 -9 -169 -58 -188 -216c-100 207 42 280 142 267c-43 45 -144 36 -178 -47c-4 82 43 144 114 143zM241 279c11 0 32 -8 32 -8
c0 -143 -1 -260 -74 -335h-199s220 43 209 333c0 0 21 10 32 10z" />
    <glyph glyph-name="police-filled" unicode="&#xf301;" horiz-adv-x="450" 
d="M225 448c30 0 55 -17 83 -38c32 -23 68 -50 123 -59c9 -1 14 -4 17 -10c4 -8 2 -16 0 -20c-6 -15 -18 -24 -30 -32c-15 -11 -29 -21 -29 -46c0 3 -1 6 -3 8s-48 43 -161 43s-158 -41 -160 -43s-4 -5 -4 -8c0 19 -13 30 -28 42c-12 10 -24 20 -30 35c-2 4 -5 13 -1 21
c3 6 9 9 18 10c60 10 104 41 139 65c26 18 47 32 66 32zM225 387c-17 0 -30 -15 -30 -15c0 -17 13 -47 30 -47s31 30 31 47c0 0 -14 15 -31 15zM225 274c81 0 124 -23 140 -33c-11 -15 -48 -49 -140 -49s-129 34 -140 49c16 10 59 33 140 33zM72 225c17 -20 58 -53 153 -53
s137 33 154 53v-38c16 -3 31 -15 31 -44c0 -23 -16 -43 -38 -48c-27 -70 -71 -159 -147 -159s-120 89 -147 159c-22 5 -37 25 -37 48c0 28 15 41 31 44v38zM141 161c-17 -1 -28 -4 -28 -24c0 -26 21 -47 46 -47s46 21 46 47c5 2 11 4 20 4s16 -2 21 -4c0 -26 21 -47 46 -47
s46 21 46 47s-21 24 -46 24c-16 0 -31 1 -39 -5c-7 3 -16 5 -28 5s-21 -2 -28 -5c-8 6 -22 5 -38 5h-18z" />
    <glyph glyph-name="open-folder-filled" unicode="&#xf2e6;" 
d="M31 407h112c13 0 22 -13 30 -26c3 -5 9 -14 12 -15h266c17 0 30 -14 30 -31v-10h-395c-29 0 -48 -15 -53 -42c-1 -4 -18 -94 -33 -174v267c0 17 14 31 31 31zM86 305h395c17 0 31 -14 31 -31v-2l-51 -276c-1 -16 -14 -29 -31 -29h-399c-17 0 -31 13 -31 30v1
c12 62 52 274 53 281c4 21 20 26 33 26z" />
    <glyph glyph-name="new" unicode="&#xf2d7;" horiz-adv-x="508" 
d="M505 175c4 -6 3 -15 -2 -20l-41 -39l5 -55c1 -8 -5 -15 -12 -17l-53 -15l-22 -52c-3 -7 -11 -11 -18 -9l-55 11l-43 -35c-3 -2 -6 -4 -10 -4s-7 2 -10 4l-44 35l-54 -11c-7 -2 -15 2 -18 9l-22 52l-54 15c-7 2 -12 9 -11 17l4 55l-40 39c-5 5 -7 14 -3 20l30 47l-17 53
c-2 7 0 15 7 19l48 28l9 55c1 8 7 14 15 14l56 2l34 45c5 6 12 7 19 4l51 -24l50 24c7 3 15 2 20 -4l33 -45l56 -2c8 0 14 -6 15 -14l9 -55l49 -28c7 -4 9 -12 7 -19l-18 -53zM175 132v120h-25v-34c0 -21 3 -48 3 -48c-6 12 -52 82 -52 82h-26v-120h25v34c0 25 -1 49 -1 49
c5 -13 50 -83 50 -83h26zM272 132v0v21h-55v38h47v21h-47v20h48v20h-71v-120h78zM417 132l34 120h-29s-17 -69 -20 -85v0c-2 16 -24 85 -24 85h-25s-23 -70 -25 -85h-1c-2 15 -20 85 -20 85h-30l33 -120h29s22 64 25 78v0c2 -14 23 -78 23 -78h30z" />
    <glyph glyph-name="shopping-cart-5" unicode="&#xf34a;" horiz-adv-x="507" 
d="M0 448h85h17l4 -16l39 -155h317h7h38l-16 -50l-44 -148l-4 -15h-16h-256h-17l-4 16l-81 325h-69v43zM155 235l32 -128h224l38 128h-294zM224 43c29 0 53 -25 53 -54s-24 -53 -53 -53s-53 24 -53 53s24 54 53 54zM373 43c29 0 54 -25 54 -54s-25 -53 -54 -53
s-53 24 -53 53s24 54 53 54z" />
    <glyph glyph-name="shopping-cart-4" unicode="&#xf349;" horiz-adv-x="492" 
d="M19 428v0h1v0v0h69c16 0 29 -5 38 -13s14 -20 18 -33v0v0l22 -88h314v0c6 0 11 -4 11 -10c0 -1 -1 -2 -1 -3l-74 -195c-1 -4 -5 -7 -9 -7v0h-188l7 -27v-1c3 -11 6 -20 10 -25s10 -8 26 -8h157c6 0 10 -4 10 -10c0 -1 -1 -3 -1 -4c7 -7 11 -16 11 -27
c0 -22 -19 -41 -41 -41c-23 0 -41 19 -41 41c0 8 2 14 6 20h-63c4 -6 6 -12 6 -20c0 -22 -19 -41 -41 -41c-23 0 -41 19 -41 41c0 10 4 19 10 26c-5 3 -9 6 -13 10c-9 10 -12 21 -15 33l-82 331c-3 11 -7 19 -12 23s-11 7 -24 7h-48c0 -11 -10 -20 -21 -20s-20 9 -20 20
c0 10 8 19 18 20zM172 274l43 -174h186l66 174h-295zM266 -3c-11 0 -20 -9 -20 -20s9 -21 20 -21s21 10 21 21s-10 20 -21 20zM399 -3c-11 0 -20 -9 -20 -20s9 -21 20 -21s21 10 21 21s-10 20 -21 20z" />
    <glyph glyph-name="idea-4" unicode="&#xf279;" horiz-adv-x="299" 
d="M147 405c83 2 152 -66 152 -149c0 -49 -24 -93 -62 -119c-15 -13 -24 -33 -24 -52h-128c0 19 -8 39 -25 52c-38 28 -62 75 -60 126c2 77 68 140 147 142zM85 64h128v-21c0 -25 -13 -36 -33 -40c-4 -13 -17 -24 -31 -24s-26 11 -30 24c-20 4 -34 15 -34 40v21z" />
    <glyph glyph-name="graduation-cap" unicode="&#xf25a;" horiz-adv-x="469" 
d="M235 384l234 -128h-234v-21h192l42 21v-171h-42v148l-192 -105l-235 128zM85 175l150 -90l149 90v-94s-42 -81 -149 -81s-150 81 -150 81v94z" />
    <glyph glyph-name="lock-2-2" unicode="&#xf2a9;" horiz-adv-x="320" 
d="M160 400c62 0 112 -50 112 -112v-46c30 -29 48 -69 48 -114c0 -88 -72 -160 -160 -160s-160 72 -160 160c0 45 18 85 48 114v46c0 62 50 112 112 112zM160 368c-44 0 -80 -36 -80 -80v-22c24 14 51 22 80 22s56 -8 80 -22v22c0 44 -36 80 -80 80zM160 256
c-71 0 -128 -57 -128 -128s57 -128 128 -128s128 57 128 128s-57 128 -128 128zM160 160c18 0 32 -14 32 -32c0 -12 -6 -22 -16 -28v-52h-32v52c-10 6 -16 16 -16 28c0 18 14 32 32 32z" />
    <glyph glyph-name="coniferous-tree" unicode="&#xf1ed;" horiz-adv-x="485" 
d="M242 434c6 0 8 -2 9 -3s2 -3 3 -4c3 -3 6 -7 9 -11c7 -9 16 -20 27 -33c21 -25 48 -53 73 -64c8 -4 14 -11 13 -20c0 -5 -2 -6 -3 -8s-3 -3 -5 -5c-4 -3 -9 -7 -15 -10c-10 -5 -24 -6 -39 -4c0 -1 -1 -2 -1 -3c32 -35 75 -65 103 -78c9 -4 16 -13 15 -24
c0 -4 -1 -5 -2 -7s-2 -4 -4 -7c-3 -5 -8 -10 -16 -16c-10 -7 -25 -13 -44 -15c36 -32 72 -55 101 -69v-1c11 -5 21 -16 19 -29c-1 -8 -7 -14 -13 -20s-15 -11 -25 -16c-20 -9 -47 -16 -78 -14c-32 -23 -73 -33 -126 -19c-47 -13 -100 -7 -141 20c-36 -4 -61 4 -77 16
c-8 6 -14 13 -18 19c-2 3 -4 6 -5 8s-2 3 -2 7c-1 12 7 23 18 28c28 13 64 39 99 71c-17 2 -31 7 -41 14c-7 5 -12 11 -16 16c-2 2 -4 5 -5 7s-2 2 -2 7v0v0c-1 11 7 20 16 24c28 13 71 45 103 80c-17 -1 -32 2 -42 7c-6 3 -11 5 -14 8c-2 2 -3 3 -4 5s-3 3 -3 8
c-1 9 4 16 12 20c30 13 57 41 77 65c10 12 18 23 24 32c3 4 6 8 8 11l4 4s2 3 8 3zM243 409c-1 -2 -3 -3 -5 -5c-6 -8 -14 -19 -24 -32c-21 -25 -49 -55 -83 -71c2 -1 4 -3 8 -5c8 -4 20 -7 37 -5h1c4 0 8 -3 10 -6c4 -8 13 -13 24 -15s22 1 25 4c2 1 4 3 6 3s5 -1 6 -2
c8 -6 22 -7 33 -4c5 1 9 4 12 6s3 4 3 6c0 6 5 10 11 10c1 0 2 -1 3 -1c14 -4 25 -1 34 3c4 2 8 4 10 6c-31 14 -58 43 -80 69c-11 13 -20 25 -27 34c-2 3 -2 3 -4 5zM187 258c-34 -38 -77 -70 -109 -85c-3 -1 -4 -3 -4 -4s1 -3 2 -4c2 -3 7 -7 12 -11c11 -8 28 -16 55 -12
h2c2 0 5 0 7 -2c23 -23 65 -24 85 -10c1 1 3 1 5 1c1 0 4 0 5 -1c31 -16 62 -12 81 8c2 2 6 3 8 3h1c31 -3 49 4 60 12c6 4 9 9 11 12c1 2 3 3 3 4s-1 2 -4 4c-31 15 -75 45 -109 82c-4 -2 -8 -3 -12 -4c-14 -4 -29 -3 -43 4c-10 -6 -23 -7 -36 -5c-7 1 -14 4 -20 8z
M144 120c-40 -38 -83 -70 -117 -86c-5 -2 -6 -5 -6 -8c1 -1 1 -3 2 -5c3 -4 8 -9 14 -14c13 -9 33 -17 66 -12h2c2 0 5 -1 6 -2c36 -25 84 -32 128 -19c1 0 2 1 3 1s2 -1 3 -1c52 -14 86 -5 114 17c2 1 4 2 6 2h1c29 -2 54 4 72 12c9 4 16 9 20 13s6 8 6 8c0 2 -2 5 -7 8
c-35 17 -77 45 -119 86h-1c-25 -21 -60 -25 -94 -10c-28 -16 -70 -14 -99 10z" />
    <glyph glyph-name="calendar-6-2" unicode="&#xf182;" 
d="M113 448h20c5 0 11 -2 15 -6s6 -9 6 -14v-21h204v21c0 5 2 10 6 14s10 6 15 6h20c5 0 11 -2 15 -6s6 -9 6 -14v-21h72c5 0 10 -2 14 -6s6 -9 6 -14v-431c0 -5 -2 -10 -6 -14s-9 -6 -14 -6h-472c-5 0 -10 2 -14 6s-6 9 -6 14v431c0 5 2 10 6 14s9 6 14 6h72v21
c0 5 2 10 6 14s10 6 15 6zM113 428v-62h20v62h-20zM379 428v-62h20v62h-20zM20 387v-82h472v82h-72v-21c0 -5 -2 -11 -6 -15s-10 -5 -15 -5h-20c-5 0 -11 1 -15 5s-6 10 -6 15v21h-204v-21c0 -5 -2 -11 -6 -15s-10 -5 -15 -5h-20c-5 0 -11 1 -15 5s-6 10 -6 15v21h-72z
M20 284v-328h472v328h-472zM261 218c44 0 52 -33 53 -48h-22c-1 10 -7 29 -32 29c-46 0 -46 -65 -46 -72l1 -1c5 8 18 25 47 25c54 0 57 -52 57 -61c0 -7 -2 -64 -63 -64c-68 0 -65 81 -65 90c0 13 -2 102 70 102zM258 132c-37 -1 -39 -37 -39 -42c0 -6 2 -42 39 -42
c35 0 38 36 38 42s-1 42 -38 42z" />
    <glyph glyph-name="presentation-filled" unicode="&#xf303;" horiz-adv-x="471" 
d="M10 428h451c6 0 10 -5 10 -11v-30c0 -6 -4 -11 -10 -11h-451c-6 0 -10 5 -10 11v30c0 6 4 11 10 11zM20 356h431v-307c0 -6 -5 -11 -11 -11h-409c-6 0 -11 5 -11 11v307zM164 284v-51h51c0 28 -23 51 -51 51zM266 274c-6 0 -10 -4 -10 -10s4 -11 10 -11h113
c6 0 10 5 10 11s-4 10 -10 10h-113zM133 253c-28 0 -51 -23 -51 -51s23 -51 51 -51s51 23 51 51h-51v51zM266 223c-6 0 -10 -5 -10 -11s4 -10 10 -10h113c6 0 10 4 10 10s-4 11 -10 11h-113zM266 172c-6 0 -10 -5 -10 -11s4 -10 10 -10h113c6 0 10 4 10 10s-4 11 -10 11
h-113zM225 28h21v-12c12 -4 20 -16 20 -29c0 -17 -13 -31 -30 -31s-31 14 -31 31c0 13 8 25 20 29v12z" />
    <glyph glyph-name="champagne-2" unicode="&#xf19c;" horiz-adv-x="503" 
d="M284 448h1c6 0 11 -4 11 -10v0c0 -11 4 -19 10 -24s15 -8 26 -7v0c6 0 10 -4 10 -10c0 -5 -4 -10 -9 -10c-16 -1 -30 3 -41 12c-6 6 -10 13 -13 21c-11 -7 -24 -12 -39 -13c-13 -1 -27 2 -39 9c-2 -12 -6 -24 -11 -31c-8 -12 -16 -17 -16 -17c-2 -1 -4 -2 -6 -2
c-6 0 -11 4 -11 10c0 3 3 7 6 9c0 0 5 3 10 11s10 21 8 40v2c0 5 4 9 9 10h2c3 0 7 -2 9 -5c7 -11 21 -16 38 -15s33 8 38 16c1 2 4 4 7 4zM395 394v0h1v0c4 0 9 -3 10 -7c0 0 32 -84 43 -125c9 -34 11 -69 3 -99c-7 -27 -23 -49 -49 -60l20 -73c8 2 15 4 22 4
c10 1 18 0 26 -2c15 -3 27 -12 31 -25c0 -1 1 -2 1 -3c0 -4 -4 -9 -8 -10l-135 -38h-3c-4 0 -9 3 -10 7c-4 13 3 27 14 38c10 9 24 18 42 24l-20 72c-4 -1 -8 -1 -12 -1c-27 0 -51 14 -70 35s-33 48 -41 78c-2 7 -4 17 -6 27c-4 -17 -8 -34 -11 -46c-8 -30 -23 -58 -42 -79
s-42 -35 -69 -35c-4 0 -8 0 -12 1l-20 -72c18 -6 32 -15 42 -24c11 -11 18 -25 14 -38c-1 -4 -6 -7 -10 -7h-3l-136 38c-4 1 -7 6 -7 10v3c4 13 16 22 31 25c8 2 17 3 27 2c7 0 14 -2 22 -4l20 73c-26 11 -42 33 -49 60c-8 30 -7 66 2 100c11 41 44 124 44 124c1 3 5 7 8 7
h1c1 0 2 -1 3 -1l123 -34v1c0 4 4 9 8 10l154 43zM390 371l-136 -38v0l9 -3c4 -1 8 -6 8 -10l-1 -1s-3 -17 -5 -27h154c-11 34 -26 71 -29 79zM113 351c-3 -9 -20 -54 -32 -90h157c5 24 9 46 10 52zM267 272c5 -21 9 -43 13 -57c8 -27 21 -52 37 -70s34 -29 54 -29
c5 0 11 1 17 3c24 7 38 24 45 49s5 58 -4 89c-1 4 -2 10 -4 15h-158zM75 241c0 -1 -2 -3 -2 -4c-9 -31 -10 -63 -3 -88s22 -43 46 -50c6 -2 11 -2 16 -2c20 0 38 10 54 28s29 43 37 70c3 12 7 29 11 46h-159zM446 13c-8 -1 -17 -2 -28 -5c-21 -6 -35 -14 -43 -22
c-2 -2 -3 -4 -4 -6l102 29c-2 1 -3 2 -6 3c-5 1 -13 2 -21 1zM45 -7c-3 0 -6 0 -9 -1s-5 -2 -7 -3l103 -28c-1 2 -2 3 -4 5c-8 8 -22 16 -43 22c-11 3 -21 4 -29 5h-11z" />
    <glyph glyph-name="us-dollar" unicode="&#xf3ce;" horiz-adv-x="192" 
d="M80 400h32v-34c45 -8 80 -47 80 -94v-16h-32v16c0 36 -28 64 -64 64c-35 0 -64 -29 -64 -64c0 -20 7 -30 19 -40s31 -17 51 -25s41 -17 59 -31s31 -36 31 -64c0 -47 -35 -86 -80 -94v-34h-32v34c-45 8 -80 47 -80 94v16h32v-16c0 -36 28 -64 64 -64c35 0 64 30 64 64
c0 20 -7 30 -19 40s-31 18 -51 26s-41 16 -59 30s-31 36 -31 64c0 47 35 86 80 94v34z" />
    <glyph glyph-name="film-reel-3" unicode="&#xf23f;" horiz-adv-x="448" 
d="M192 384c106 0 192 -86 192 -192v-144c0 -26 22 -48 48 -48h16v-32h-16c-44 0 -80 36 -80 80v38c-34 -52 -93 -86 -160 -86c-106 0 -192 86 -192 192s86 192 192 192zM192 352c-89 0 -160 -71 -160 -160s71 -160 160 -160s160 71 160 160s-71 160 -160 160zM192 336
c18 0 35 -4 35 -4l17 -3l-4 -17l-14 -46l-2 -12h-13c-9 0 -15 2 -19 2s-10 -2 -19 -2h-13l-2 12l-14 46l-4 17l17 3s17 4 35 4zM192 304c-5 0 -7 0 -12 -1l4 -15h8h8l4 15c-5 1 -7 1 -12 1zM55 244l17 -4l46 -14l12 -2v-13c0 -9 -2 -15 -2 -19s2 -10 2 -19v-13l-12 -2
l-46 -14l-17 -4l-3 17s-4 17 -4 35s4 35 4 35zM329 244l3 -17s4 -17 4 -35s-4 -35 -4 -35l-3 -17l-17 4l-46 14l-12 2v13c0 9 2 15 2 19s-2 10 -2 19v13l12 2l46 14zM192 240c26 0 48 -22 48 -48s-22 -48 -48 -48s-48 22 -48 48s22 48 48 48zM192 208c-9 0 -16 -7 -16 -16
s7 -16 16 -16s16 7 16 16s-7 16 -16 16zM81 204c-1 -5 -1 -7 -1 -12s0 -7 1 -12l15 4v8v8zM303 204l-15 -4v-8v-8l15 -4c1 5 1 7 1 12s0 7 -1 12zM160 130h13c9 0 15 -2 19 -2s10 2 19 2h13l2 -12l14 -46l4 -17l-17 -3s-17 -4 -35 -4s-35 4 -35 4l-17 3l4 17l14 46zM184 96
l-4 -15c5 -1 7 -1 12 -1s7 0 12 1l-4 15h-8h-8z" />
    <glyph glyph-name="film-reel-2" unicode="&#xf23e;" 
d="M192 448c106 0 192 -86 192 -192s-86 -192 -192 -192s-192 86 -192 192s86 192 192 192zM192 411c-30 0 -43 -8 -43 -31s34 -45 43 -45s43 22 43 45s-13 31 -43 31zM369 376c67 -41 143 -104 143 -173c0 -44 -18 -71 -35 -96c-15 -23 -29 -43 -29 -75
c0 -37 48 -55 49 -55l-13 -40c-3 1 -79 27 -79 95c0 81 64 99 64 171c0 33 -29 67 -68 98c-6 27 -17 53 -32 75zM76 335c-13 -1 -21 -13 -28 -34c-9 -28 -6 -45 16 -52s54 19 57 28s-8 49 -30 56c-6 2 -11 2 -15 2zM308 335c-4 0 -9 0 -15 -2c-22 -7 -33 -47 -30 -56
s35 -35 57 -28s25 24 16 52c-7 21 -15 33 -28 34zM192 285c-16 0 -29 -13 -29 -29s13 -29 29 -29s29 13 29 29s-13 29 -29 29zM249 197c-5 -1 -9 -3 -11 -4c-7 -5 -23 -43 -9 -62s29 -17 53 0s32 31 18 50c-10 14 -36 18 -51 16zM134 195c-15 1 -40 -2 -50 -17
c-13 -20 -6 -33 19 -49s41 -18 54 2c13 19 -4 57 -12 62c-2 1 -6 2 -11 2z" />
    <glyph glyph-name="facebook-2" unicode="&#xf230;" 
d="M102 448h308c56 0 102 -46 102 -102v-308c0 -56 -46 -102 -102 -102h-308c-56 0 -102 46 -102 102v308c0 56 46 102 102 102zM102 428c-45 0 -82 -37 -82 -82v-308c0 -45 37 -82 82 -82h154v195h-20h-11v10v62v10h11h20v20c0 25 4 48 17 65s35 28 65 28
c32 0 65 -11 65 -11l7 -3v-7v-51v-10h-11h-30c-10 0 -16 -2 -18 -3s-3 -2 -3 -8v-20h51h13l-2 -12l-11 -61l-1 -9h-9h-41v-195h62c45 0 82 37 82 82v308c0 45 -37 82 -82 82h-308zM338 325c-26 0 -40 -7 -49 -19s-13 -30 -13 -53v-30v-11h-10h-20v-40h20h10v-11v-205h52v205
v11h10h42l7 40h-49h-10v11v30c0 10 4 20 12 25s17 6 29 6h20v33c-8 2 -29 8 -51 8z" />
    <glyph glyph-name="baseball" unicode="&#xf129;" horiz-adv-x="508" 
d="M202 448c-4 -11 -10 -19 -16 -28c-9 -6 -17 -13 -26 -15c4 21 21 39 42 43zM213 448c28 0 51 -23 51 -51c-11 -4 -23 -11 -34 -22s-17 -23 -21 -34c-28 2 -49 24 -51 52c11 4 23 10 34 21s19 23 21 34zM448 445c19 3 39 -5 51 -22c15 -21 10 -52 -9 -71l-123 -124
c-45 -43 -182 -134 -237 -192l-68 -68c9 -6 9 -19 0 -28c-6 -9 -19 -9 -28 0l-28 28c-9 6 -9 19 0 28c6 9 19 9 28 0l68 68c55 55 145 194 190 239l126 126c8 9 19 14 30 16zM264 386c-4 -23 -21 -41 -42 -43c4 9 8 17 17 26s16 13 25 17z" />
    <glyph glyph-name="film-reel-4" unicode="&#xf240;" horiz-adv-x="513" 
d="M195 448c40 0 77 -12 108 -33v0c7 -4 13 -10 19 -15c117 -93 129 -194 127 -275c-1 -43 -5 -81 1 -109s18 -47 55 -60c5 -1 8 -5 8 -10c0 -6 -4 -10 -10 -10c-1 0 -3 0 -4 1c-43 15 -64 42 -70 75s-2 72 -1 114c1 57 -2 121 -47 185c6 -18 8 -38 8 -58
c0 -107 -87 -194 -194 -194s-195 87 -195 194s88 195 195 195zM195 428c-96 0 -175 -79 -175 -175s79 -174 175 -174s174 78 174 174c0 53 -24 100 -61 132c-5 4 -10 9 -16 13c-28 19 -61 30 -97 30zM195 412c15 0 27 -1 37 -8s14 -19 14 -32c0 -16 -10 -29 -21 -38
c-5 -5 -10 -7 -15 -10s-9 -5 -15 -5s-10 2 -15 5s-11 5 -16 10c-11 9 -21 22 -21 38c0 13 4 25 14 32s23 8 38 8zM195 392c-13 0 -22 -2 -26 -5s-6 -6 -6 -15c0 -6 6 -15 14 -22c4 -4 8 -7 12 -9c2 -1 5 -2 6 -2s3 1 5 2c4 2 8 5 12 9c8 7 14 16 14 22c0 9 -2 12 -6 15
s-12 5 -25 5zM82 339c6 1 12 0 18 -2c15 -5 25 -19 30 -32c3 -6 5 -13 6 -19s1 -10 -1 -16s-5 -8 -9 -12s-9 -8 -15 -12c-12 -7 -28 -14 -43 -9c-13 4 -22 13 -25 24s-2 24 3 38s11 26 20 33c5 4 10 6 16 7zM298 339h9c6 -1 12 -3 17 -7c9 -7 13 -19 18 -33s7 -27 4 -38
s-12 -20 -25 -24c-15 -5 -31 2 -43 9c-6 4 -11 8 -15 12s-8 6 -10 12s-1 10 0 16s3 13 6 19c5 13 15 26 30 31v0v1c3 1 6 2 9 2zM84 319c-2 0 -4 -2 -6 -3c-4 -3 -8 -10 -12 -23s-5 -21 -4 -26s4 -7 13 -10c6 -2 16 1 25 7c5 3 9 5 12 8l4 4c0 0 1 4 0 7c-1 4 -3 9 -5 14
c-4 10 -11 18 -17 20c-4 1 -8 2 -10 2zM301 319c-2 0 -4 -1 -6 -2c-6 -2 -13 -10 -17 -20c-2 -5 -3 -10 -4 -14c0 -2 -1 -5 -1 -6c1 -1 2 -3 4 -5c3 -3 7 -6 12 -9c9 -6 19 -8 25 -6c9 3 12 5 13 10s0 13 -4 26s-8 20 -12 23c-3 2 -5 4 -10 3zM195 274c11 0 20 -10 20 -21
s-9 -20 -20 -20s-21 9 -21 20s10 21 21 21zM257 207h10c14 -1 31 -6 40 -19v0v0c8 -11 10 -23 6 -34s-14 -20 -26 -29s-23 -15 -35 -15s-22 7 -30 18c-9 13 -8 29 -5 43c2 7 3 13 6 18s5 9 10 13s9 3 15 4c3 0 6 1 9 1zM131 205h9c6 0 10 -1 15 -4s7 -7 10 -12s5 -11 7 -18
c4 -13 6 -29 -3 -43c-7 -11 -17 -19 -29 -19s-23 6 -36 14s-22 16 -27 27s-2 23 5 34c9 14 25 18 39 20c3 0 7 1 10 1zM257 187c-3 0 -4 -1 -6 -1s-5 -1 -6 -1v0c0 -1 -2 -3 -3 -5c-2 -4 -4 -9 -5 -14c-3 -10 -3 -21 1 -26c5 -7 9 -9 14 -9s12 3 23 11s17 15 19 19
s1 7 -4 15c-4 5 -14 9 -25 10c-3 0 -5 1 -8 1zM131 185c-3 0 -5 -1 -8 -1c-11 -1 -21 -6 -24 -11c-5 -8 -5 -11 -3 -15s8 -11 19 -18s19 -10 24 -10s8 1 13 9c3 5 4 16 1 26c-1 5 -4 10 -6 14c-1 3 -4 5 -4 5c-1 0 -3 1 -5 1h-7z" />
    <glyph glyph-name="in-love" unicode="&#xf27e;" horiz-adv-x="505" 
d="M252 444c139 0 253 -113 253 -252s-114 -252 -253 -252s-252 113 -252 252s113 252 252 252zM252 405c-117 0 -213 -96 -213 -213s96 -213 213 -213s213 96 213 213s-96 213 -213 213zM196 270c20 0 35 -13 35 -34c0 -35 -43 -53 -67 -82c-24 29 -67 46 -67 81
c0 21 14 35 34 35c18 0 33 -21 33 -21s14 21 32 21zM374 270c20 0 35 -13 35 -34c0 -35 -43 -53 -67 -82c-24 29 -68 46 -68 81c0 21 14 35 34 35c18 0 33 -21 33 -21s15 21 33 21zM110 131c40 -29 89 -46 142 -46s103 17 143 46c-32 -45 -84 -74 -143 -74s-110 29 -142 74z
" />
    <glyph glyph-name="conference-call-2" unicode="&#xf1eb;" horiz-adv-x="480" 
d="M240 320c44 0 80 -36 80 -80c0 -24 -11 -45 -28 -60c17 -9 31 -23 42 -39c6 8 14 15 22 21c-12 12 -20 28 -20 46c0 35 29 64 64 64s64 -29 64 -64c0 -18 -8 -34 -20 -46c21 -14 36 -39 36 -66h-32c0 26 -22 48 -48 48s-48 -22 -48 -48v-16h-32c0 44 -36 80 -80 80
s-80 -36 -80 -80h-32v16c0 26 -22 48 -48 48s-48 -22 -48 -48h-32c0 27 15 52 36 66c-12 12 -20 28 -20 46c0 35 29 64 64 64s64 -29 64 -64c0 -18 -8 -34 -20 -46c8 -6 16 -13 22 -21c11 16 25 30 42 39c-17 15 -28 36 -28 60c0 44 36 80 80 80zM240 288
c-27 0 -48 -21 -48 -48s21 -48 48 -48s48 21 48 48s-21 48 -48 48zM80 240c-18 0 -32 -14 -32 -32s14 -32 32 -32s32 14 32 32s-14 32 -32 32zM400 240c-18 0 -32 -14 -32 -32s14 -32 32 -32s32 14 32 32s-14 32 -32 32z" />
    <glyph glyph-name="star-of-bethlehem-2" unicode="&#xf376;" 
d="M378 448h1c4 0 9 -2 10 -6l31 -78l83 -5c5 0 9 -6 9 -11c0 -3 -1 -6 -3 -8l-64 -53l20 -81v-2c0 -6 -4 -10 -10 -10c-2 0 -5 0 -6 1l-70 44l-70 -44c-1 -1 -4 -1 -6 -1c-6 0 -10 4 -10 10v2l8 31c-50 -34 -81 -93 -99 -148c-20 -62 -24 -117 -24 -117c0 -5 -5 -9 -10 -9
c-3 0 -6 1 -8 3c-14 16 -22 40 -28 60c-2 7 -2 7 -3 13l-63 -98c-2 -2 -5 -5 -8 -5c-5 0 -9 4 -10 9c-9 67 0 110 7 136l-39 -26c-1 -1 -4 -2 -6 -2c-6 0 -10 5 -10 11v1s9 58 48 120c37 58 102 122 212 147l-11 8c-2 2 -3 5 -3 8c0 5 4 11 9 11l83 5l31 78c1 3 6 6 9 6z
M379 410l-24 -59c-1 -3 -6 -7 -9 -7l-63 -4l4 -4l2 -1l2 -2v0l1 -1l40 -33c2 -2 3 -5 3 -8v-2l-8 -32v-2h-1l-7 -29l55 34c1 1 3 2 5 2s4 -1 5 -2l55 -34l-16 63v2c0 3 1 6 3 8l49 41l-63 4c-3 0 -8 4 -9 7zM280 315c-114 -21 -179 -83 -215 -141c-24 -38 -33 -68 -38 -88
l40 27c1 1 3 1 5 1c6 0 10 -4 10 -10v-4c0 0 -19 -49 -16 -121l59 91c2 2 5 5 8 5c5 0 9 -4 10 -9c0 0 2 -15 8 -34c3 -9 7 -19 11 -28c3 23 9 53 21 91c21 63 57 136 125 170l5 22z" />
    <glyph glyph-name="twitter-2" unicode="&#xf3c2;" horiz-adv-x="504" 
d="M504 338c-19 -8 -38 -13 -59 -16c21 13 37 33 45 57c-20 -12 -42 -20 -66 -25c-19 20 -45 33 -75 33c-57 0 -103 -47 -103 -104c0 -8 0 -15 2 -23c-86 4 -162 45 -213 108c-9 -15 -14 -33 -14 -52c0 -36 18 -67 46 -86c-17 1 -33 5 -47 13v-2c0 -50 36 -91 83 -101
c-9 -2 -18 -4 -27 -4c-7 0 -14 1 -20 2c13 -41 52 -71 97 -72c-35 -28 -80 -44 -128 -44c-8 0 -17 1 -25 2c46 -29 100 -47 158 -47c190 0 295 157 295 294c0 5 -1 10 -1 14c20 15 38 32 52 53z" />
    <glyph glyph-name="mountain-biking" unicode="&#xf2c9;" 
d="M286 448c27 0 49 -22 49 -49s-22 -49 -49 -49s-50 22 -50 49s23 49 50 49zM123 380c9 0 16 -2 23 -6l-92 -115s-46 17 -32 55c14 39 64 68 101 66zM188 368c12 3 26 -4 43 -12c14 -7 149 -67 149 -67c8 -2 14 -9 14 -18c0 -11 -9 -20 -20 -20c-3 0 -5 1 -7 2v-1
s-122 39 -131 43c-7 4 -9 0 -13 -4c-4 -3 -56 -68 -56 -68s33 -14 55 -23c19 -8 20 -10 28 -31c6 -16 40 -97 42 -103s3 -24 -12 -30s-27 9 -31 17s-48 101 -48 101s-48 15 -73 23c-23 7 -41 15 -50 31c-10 19 3 42 8 49c9 13 30 39 53 66c19 22 31 36 44 43c2 1 3 2 5 2z
M414 212c54 0 98 -45 98 -99s-44 -98 -98 -98s-99 44 -99 98s45 99 99 99zM414 172c-33 0 -60 -26 -60 -59s27 -59 60 -59s59 26 59 59s-26 59 -59 59zM98 133c54 0 99 -45 99 -99s-45 -98 -99 -98s-98 44 -98 98s44 99 98 99zM98 94c-33 0 -59 -27 -59 -60s26 -59 59 -59
s60 26 60 59s-27 60 -60 60z" />
    <glyph glyph-name="surfing" unicode="&#xf38b;" horiz-adv-x="509" 
d="M173 449v0c7 0 16 -6 19 -13l32 -74l106 -33l6 -3l146 -119c4 -3 7 -10 7 -15c0 -11 -9 -20 -20 -20c-4 0 -9 3 -12 5l-102 82l-77 -70l58 -42c6 -4 10 -13 10 -20v-6l-24 -95c-2 -11 -12 -19 -23 -20l193 -31c9 -1 17 -10 17 -19c0 -11 -9 -20 -20 -20h-3l-372 58
c-28 -31 -100 -38 -100 -38l34 48l-31 5c-9 1 -17 11 -17 20s7 17 16 19h3h4l266 -41c-9 3 -17 13 -17 23c0 3 1 7 2 9l20 78l-66 47l2 -48v-1c0 -8 -7 -18 -14 -22l-102 -51c-3 -1 -8 -3 -11 -3c-14 0 -25 11 -25 25c0 8 6 18 14 22l88 44l-3 83v1c0 5 3 13 7 17v0l2 2
l77 75l-60 19c-5 1 -10 6 -12 11l-35 82c-1 2 -2 7 -2 9c0 9 7 17 16 19c1 0 2 1 3 1zM361 428c27 0 49 -22 49 -49s-22 -49 -49 -49s-49 22 -49 49s22 49 49 49z" />
    <glyph glyph-name="sail-boat" unicode="&#xf322;" horiz-adv-x="513" 
d="M256 417h1c6 0 10 -4 10 -10v0v-243c4 8 8 19 12 35c9 37 13 94 -2 175v2c0 5 4 10 9 11h1c2 0 5 -2 7 -3c83 -73 121 -144 137 -197c11 -35 11 -62 11 -77h20c5 0 9 0 14 -3c2 -2 5 -5 6 -8s1 -6 0 -8c-2 -9 -8 -13 -13 -19c-32 -35 -72 -58 -108 -73c3 0 6 -1 9 -1
c14 0 37 4 51 15c2 1 4 3 6 3s4 -2 6 -3c14 -11 37 -15 51 -15c7 0 11 2 15 3h4c6 0 10 -4 10 -10c0 -4 -3 -9 -7 -10c-6 -2 -13 -3 -22 -3c-16 0 -38 4 -57 16c-19 -12 -41 -16 -57 -16c-12 0 -28 2 -43 9c-2 0 -5 2 -6 3l-8 4c-19 -12 -40 -16 -56 -16s-38 4 -57 16
c-19 -12 -40 -16 -56 -16s-38 4 -57 16c-19 -12 -41 -16 -57 -16c-8 0 -15 0 -21 1c-5 0 -9 5 -9 10c0 6 4 11 10 11c1 0 2 -1 3 -1c5 -1 11 -1 17 -1c14 0 37 4 51 15c1 1 3 3 5 3h1c2 0 4 -2 6 -3c11 -9 28 -12 41 -14c-14 6 -30 12 -43 20s-25 16 -34 26s-15 21 -15 34
c0 17 14 31 31 31h124l-128 42c-4 1 -7 5 -7 9c0 3 2 7 5 9c0 0 124 71 180 240c1 3 5 7 9 7zM247 355c-49 -108 -121 -169 -152 -191l152 -48v239zM302 348c9 -67 5 -118 -3 -153c-5 -23 -12 -37 -17 -47l139 -35c1 11 1 32 -10 68c-13 44 -45 104 -109 167zM267 130v-20
h81zM73 90c-4 0 -11 -7 -11 -11c0 -6 3 -13 10 -20s17 -15 29 -22c24 -14 54 -25 77 -32v0v0c6 2 12 5 16 8c2 1 4 3 6 3s5 -2 7 -3c14 -11 36 -15 50 -15s36 4 50 15c2 1 4 3 6 3s5 -2 7 -3c2 -2 5 -3 8 -5c39 13 89 38 126 78c2 2 2 2 3 4h-384zM85 -25h1v0h1
c2 0 4 -2 6 -3c14 -11 37 -15 51 -15s36 4 50 15c2 1 4 3 6 3s5 -2 7 -3c14 -11 36 -15 50 -15s36 4 50 15c2 1 4 3 6 3s5 -2 7 -3c14 -11 36 -15 50 -15s37 4 51 15c2 1 4 3 6 3s4 -2 6 -3c14 -11 37 -15 51 -15c7 0 11 2 15 3h4c6 0 10 -4 10 -10c0 -4 -3 -9 -7 -10
c-6 -2 -13 -3 -22 -3c-16 0 -38 4 -57 16c-19 -12 -41 -16 -57 -16s-38 4 -57 16c-19 -12 -40 -16 -56 -16s-38 4 -57 16c-19 -12 -40 -16 -56 -16s-38 4 -57 16c-19 -12 -41 -16 -57 -16c-8 0 -15 0 -21 1c-5 0 -9 5 -9 10c0 6 4 11 10 11c1 0 2 -1 3 -1c5 -1 11 -1 17 -1
c14 0 37 4 51 15c1 1 3 3 4 3z" />
    <glyph glyph-name="advertising" unicode="&#xf104;" 
d="M445 448h3c12 0 21 -9 21 -21v0v-171c23 0 43 -20 43 -43s-20 -42 -43 -42v-171v-0c0 -12 -9 -22 -21 -22c-6 0 -13 4 -17 9c0 0 -102 141 -260 141h-132c-21 0 -39 18 -39 39v93c0 21 18 39 39 39h132c158 0 260 140 260 140c3 4 9 8 14 9zM427 372
c-44 -44 -123 -108 -235 -115v-87c112 -7 191 -71 235 -115v317zM43 107h76s-1 -71 50 -107c15 -11 21 -25 21 -36c2 -9 -3 -28 -26 -28h-51c-15 0 -28 13 -28 28c0 17 -16 70 -42 121v22z" />
    <glyph glyph-name="paddling" unicode="&#xf2e7;" horiz-adv-x="513" 
d="M374 414l3 -9s13 -34 13 -65c0 -11 0 -24 -3 -36c-2 -8 -7 -16 -13 -22l48 -206c2 -2 3 -5 3 -7v-1c33 -14 48 -44 55 -61c9 8 14 14 14 14c2 2 5 4 8 4c6 0 11 -4 11 -10c0 -2 -2 -4 -3 -6c0 0 -55 -69 -155 -69c-44 0 -87 23 -128 45s-82 43 -114 43
c-66 0 -93 -64 -93 -64c-1 -4 -6 -8 -10 -8c-6 0 -10 4 -10 10c0 2 1 5 2 6c0 0 27 64 93 75c3 19 17 94 82 139c13 50 51 80 86 96c20 9 40 14 53 17c-5 6 -10 14 -13 21c-13 26 -21 59 -21 59l-3 10l10 3l76 20zM361 389l-56 -14c2 -8 7 -28 16 -47c5 -10 12 -19 19 -25
s12 -8 17 -7s8 5 10 13s3 20 3 31c0 20 -6 39 -9 49zM334 282c-5 -1 -32 -5 -62 -19c-33 -15 -68 -41 -77 -86l-1 -4l-3 -2c-56 -38 -71 -101 -75 -122c40 -1 79 -23 120 -45c32 -17 63 -34 93 -40c-15 21 -44 56 -92 70l-7 2l-1 7c-1 11 5 20 9 27s9 13 9 13l5 6l7 -4
s36 -17 79 -17c30 0 52 5 64 8l-5 17c-12 -5 -33 -11 -61 -11c-23 0 -44 12 -59 23c-10 8 -16 14 -20 18c-2 1 -4 2 -5 4l-1 1c-9 10 -15 23 -15 38c0 10 3 20 8 28v1c0 1 0 3 1 4c13 21 28 36 47 47c17 9 38 14 65 17l-3 12c-7 0 -14 3 -20 7zM362 243
c-27 -2 -46 -7 -60 -15c-3 -2 -6 -3 -9 -5c31 -1 56 -26 56 -57c0 -27 -19 -48 -44 -54c10 -5 21 -10 31 -10c27 0 48 7 57 11zM292 202c-20 0 -35 -16 -35 -36c0 -10 4 -19 10 -25s15 -10 25 -10c20 0 36 15 36 35s-16 36 -36 36zM258 64l-2 -4c-2 -4 -3 -7 -4 -10
c64 -23 97 -76 104 -89c14 0 27 1 39 4c-7 38 -6 62 -1 77c1 5 3 9 5 12c-14 -3 -35 -7 -61 -7c-41 0 -70 13 -80 17zM419 47c-2 -2 -4 -5 -6 -11c-3 -11 -4 -30 2 -65v0c20 6 36 14 48 23c-3 9 -14 39 -44 53z" />
    <glyph glyph-name="paid-filled" unicode="&#xf2eb;" 
d="M255 428c3 0 5 -1 7 -3l111 -111h-29l-89 89l-88 -89h-28l109 111c2 2 4 3 7 3zM20 294h472c12 0 20 -8 20 -20v-41c0 -12 -8 -21 -20 -21h-2l-57 -183c-3 -12 -15 -21 -29 -21h-297c-13 0 -25 8 -30 21l-55 183h-2c-12 0 -20 9 -20 21v41c0 12 8 20 20 20zM338 217
l-102 -103l-52 51l-14 -14l66 -66l116 117z" />
    <glyph glyph-name="camcorder" unicode="&#xf18b;" horiz-adv-x="427" 
d="M108 406c59 -1 105 -49 105 -107v-278c0 -23 -19 -42 -42 -42h-128c-23 0 -43 19 -43 42v274c0 55 41 104 96 110c4 0 8 1 12 1zM107 363c-36 0 -64 -28 -64 -64s28 -64 64 -64s64 28 64 64s-28 64 -64 64zM235 299h149c11 0 23 -4 31 -12s12 -20 12 -31v-107
c0 -11 -4 -22 -12 -30s-20 -12 -31 -12h-149v42h149v107h-149v43zM64 64c-13 0 -21 -8 -21 -21s8 -22 21 -22s21 9 21 22s-8 21 -21 21z" />
    <glyph glyph-name="help-2" unicode="&#xf26a;" horiz-adv-x="465" 
d="M233 425c128 0 232 -105 232 -233s-104 -233 -232 -233s-233 105 -233 233s105 233 233 233zM232 50c19 0 33 14 33 33s-15 33 -33 33c-19 0 -34 -14 -34 -33s15 -33 34 -33zM280 200c24 21 35 38 35 66c0 45 -36 65 -78 65c-43 0 -68 -25 -68 -48c0 -14 9 -24 19 -24
c9 0 24 5 22 19c-3 22 5 31 24 31c20 0 28 -12 28 -36c0 -63 -41 -70 -41 -113v-9h24c0 9 -2 16 14 30z" />
    <glyph glyph-name="coins-2" unicode="&#xf1e5;" 
d="M358 448c41 0 78 -6 105 -16c14 -5 25 -11 34 -18s15 -16 15 -27c0 -2 -1 -5 -1 -7c1 -1 1 -3 1 -4v-61c0 -2 -1 -4 -1 -6c0 -1 1 -3 1 -4v0v-62c0 -2 -1 -4 -1 -6c0 -1 1 -2 1 -3v-1v-61c0 -2 -1 -5 -1 -7c0 -1 1 -2 1 -3v-1v-61c0 -11 -6 -21 -15 -28s-20 -13 -34 -18
c-27 -10 -64 -16 -105 -16c-18 0 -35 2 -51 4v-45c0 -11 -6 -20 -15 -27s-19 -13 -33 -18c-27 -10 -64 -16 -105 -16s-78 6 -105 16c-14 5 -25 11 -34 18s-15 16 -15 27v62v0c0 1 1 3 1 4c0 2 -1 4 -1 6v62v0c0 1 1 3 1 4c0 2 -1 4 -1 6v61v1c0 1 1 2 1 3c0 2 -1 4 -1 6
c0 11 6 21 15 28s20 13 34 18c27 10 64 16 105 16c18 0 35 -1 51 -3v34v0v4v6v61v1v3v7c0 11 6 20 15 27s19 13 33 18c27 10 64 16 105 16zM358 428c-39 0 -74 -6 -98 -15c-12 -4 -21 -9 -27 -14s-8 -9 -8 -12s2 -8 8 -13s15 -10 27 -14c24 -9 59 -14 98 -14s74 5 98 14
c12 4 22 9 28 14s8 10 8 13s-2 7 -8 12s-16 10 -28 14c-24 9 -59 15 -98 15zM225 355v-40c0 -3 2 -7 8 -12s15 -11 27 -15c24 -9 59 -14 98 -14s74 5 98 14c12 4 22 10 28 15s8 9 8 12v40c-8 -5 -18 -10 -29 -14c-27 -10 -64 -16 -105 -16s-78 6 -105 16c-11 4 -20 9 -28 14
zM225 283v-16c12 -2 24 -5 34 -9c14 -5 24 -11 33 -18s15 -17 15 -28c0 -2 -1 -4 -1 -6v0v0c16 -2 34 -4 52 -4c39 0 74 6 98 15c12 4 22 9 28 14s8 9 8 12v40c-8 -5 -18 -10 -29 -14c-27 -10 -64 -16 -105 -16s-78 6 -105 16c-11 4 -20 9 -28 14zM154 253
c-39 0 -74 -5 -98 -14c-12 -4 -22 -9 -28 -14s-8 -10 -8 -13s2 -7 8 -12s16 -10 28 -14c24 -9 59 -14 98 -14s74 5 98 14c12 4 21 9 27 14s8 9 8 12s-2 8 -8 13s-15 10 -27 14c-24 9 -59 14 -98 14zM492 212c-8 -5 -18 -11 -29 -15c-27 -10 -64 -15 -105 -15
c-18 0 -35 1 -51 3v-44c0 -2 -1 -4 -1 -6v-1v0h1c16 -2 33 -3 51 -3c39 0 74 5 98 14c12 4 22 9 28 14s8 10 8 13v40zM20 181v-40c0 -3 2 -7 8 -12s16 -11 28 -15c24 -9 59 -14 98 -14s74 5 98 14c12 4 21 10 27 15s8 9 8 12v40c-8 -5 -17 -10 -28 -14
c-27 -10 -64 -16 -105 -16s-78 6 -105 16c-11 4 -21 9 -29 14zM492 140c-8 -5 -18 -10 -29 -14c-27 -10 -64 -16 -105 -16c-18 0 -35 1 -51 3v-44c0 -2 -1 -4 -1 -6v0v0c16 -2 33 -4 52 -4c39 0 74 5 98 14c12 4 22 10 28 15s8 9 8 12v40zM20 109v-40c0 -3 2 -7 8 -12
s16 -10 28 -14c24 -9 59 -15 98 -15s74 6 98 15c12 4 21 9 27 14s8 9 8 12v40c-8 -5 -17 -10 -28 -14c-27 -10 -64 -16 -105 -16s-78 6 -105 16c-11 4 -21 9 -29 14zM20 37v-40c0 -3 2 -7 8 -12s16 -10 28 -14c24 -9 59 -15 98 -15s74 6 98 15c12 4 21 9 27 14s8 9 8 12v40
c-8 -5 -17 -10 -28 -14c-27 -10 -64 -15 -105 -15s-78 5 -105 15c-11 4 -21 9 -29 14z" />
    <glyph glyph-name="key-2" unicode="&#xf299;" horiz-adv-x="427" 
d="M149 405c83 0 150 -66 150 -149c0 -19 -4 -37 -10 -54l131 -131c4 -4 7 -10 7 -16v-55c0 -13 -9 -21 -22 -21h-55c-6 0 -11 2 -15 6l-15 15v43h-43v42h-42l-32 32c-17 -6 -35 -10 -54 -10c-83 0 -149 66 -149 149s66 149 149 149zM117 341c-30 0 -53 -23 -53 -53
s23 -53 53 -53s54 23 54 53s-24 53 -54 53z" />
    <glyph glyph-name="bank-euro-2" unicode="&#xf125;" horiz-adv-x="471" 
d="M20 428h431c11 0 20 -10 20 -21v-430c0 -11 -9 -21 -20 -21h-431c-11 0 -20 10 -20 21v430c0 11 9 21 20 21zM20 407v-430h431v430h-431zM294 326c8 0 18 -1 23 -2v-22c-5 1 -13 1 -23 1c-57 0 -96 -25 -108 -74h100v-19h-104c-1 -6 -1 -12 -1 -18s0 -12 1 -18h104v-19
h-100c12 -49 51 -74 108 -74c10 0 17 0 23 1v-22c-5 -1 -15 -2 -23 -2c-73 0 -121 33 -134 97h-42v19h39c-1 6 -1 12 -1 18s0 12 1 18h-39v19h42c13 64 61 97 134 97z" />
    <glyph glyph-name="circled-right-2-filled" unicode="&#xf1cc;" horiz-adv-x="471" 
d="M236 428c130 0 235 -106 235 -236s-105 -236 -235 -236s-236 106 -236 236s106 236 236 236zM366 185c1 1 1 2 2 3c1 2 1 6 0 8c-1 1 -1 2 -2 3l-82 82c-4 4 -11 4 -15 0s-4 -10 0 -14l65 -65h-221c-6 0 -11 -4 -11 -10s5 -10 11 -10h221l-65 -65c-4 -4 -4 -10 0 -14
c2 -2 4 -3 7 -3s6 1 8 3z" />
    <glyph glyph-name="apple" unicode="&#xf115;" 
d="M246 448h20v-65c6 11 14 21 24 31c38 35 94 34 94 34c5 0 10 -5 10 -10v-1s-1 -40 -23 -72c80 -8 141 -73 141 -153c0 -87 -37 -156 -81 -203c-22 -23 -45 -42 -67 -54s-42 -19 -59 -19c-18 0 -34 5 -49 12c-15 -7 -31 -12 -49 -12c-17 0 -37 9 -59 23s-45 34 -67 59
c-44 50 -81 118 -81 194c0 85 71 154 158 154c33 0 63 -10 88 -27v109zM371 426c-14 -1 -44 -4 -67 -26c-18 -17 -27 -42 -31 -58c21 13 45 22 71 24c19 20 25 46 27 60zM158 346c-77 0 -138 -60 -138 -134c0 -69 35 -134 76 -181c21 -23 43 -42 63 -55s38 -20 48 -20
c17 0 31 5 44 12l5 3l5 -3c13 -7 27 -12 44 -12c11 0 29 6 49 17s42 27 62 49c41 44 76 108 76 190c0 74 -61 134 -138 134h-1s-3 -1 -4 -1h-3c-32 -2 -61 -15 -83 -34l-7 -6l-7 6c-24 21 -56 35 -91 35zM215 213c4 0 9 -3 12 -7v1l1 -1c7 -9 18 -25 18 -45
c0 -21 -13 -37 -18 -45v0v-1c-3 -3 -8 -5 -13 -5c-4 0 -8 2 -11 6h-1v1c-7 9 -19 24 -19 44c0 21 13 37 18 45v1h1c3 3 7 6 12 6zM307 213c4 0 9 -3 12 -7v1l1 -1c7 -9 18 -25 18 -45c0 -21 -12 -37 -17 -45h-1v-1c-3 -3 -8 -5 -13 -5c-4 0 -8 2 -11 6h-1v1
c-7 9 -19 24 -19 44c0 21 13 37 18 45v1h1c3 3 7 6 12 6zM215 188c-5 -7 -10 -17 -10 -27s5 -20 10 -27c5 7 10 17 10 27s-5 20 -10 27zM307 188c-5 -7 -10 -17 -10 -27s6 -20 11 -27c5 7 9 17 9 27s-5 20 -10 27z" />
    <glyph glyph-name="address-book-filled" unicode="&#xf103;" horiz-adv-x="369" 
d="M52 407h286c17 0 31 -14 31 -31v-368c0 -17 -14 -31 -31 -31h-286c-17 0 -31 14 -31 31v41h31c6 0 10 4 10 10c0 2 0 4 -1 5c-2 -3 -6 -5 -9 -5v0h-41h-1c-6 0 -10 4 -10 10c0 5 5 10 10 10v0h1h10v31h31c6 0 10 4 10 10c0 2 0 4 -1 5c-2 -3 -6 -5 -9 -5v0h-41h-1
c-6 0 -10 5 -10 11c0 5 5 10 10 10v0h1h10v31h31c6 0 10 4 10 10c0 2 0 4 -1 5c-2 -3 -6 -5 -9 -5v0h-41h-1c-6 0 -10 4 -10 10c0 5 5 10 10 10v0h1h10v31h31c6 0 10 4 10 10c0 2 0 4 -1 5c-2 -3 -6 -5 -9 -5v0h-41h-1c-6 0 -10 4 -10 10c0 5 5 11 10 11v0h1h10v30h31
c6 0 10 5 10 11c0 2 0 3 -1 4c-2 -3 -6 -4 -9 -4v0h-41h-1c-6 0 -10 4 -10 10c0 5 5 10 10 10v0h1h10v51c0 17 14 31 31 31zM205 284c-62 0 -102 -49 -102 -105c0 -54 39 -87 85 -87c19 0 34 2 50 10l-5 15c-11 -6 -26 -9 -41 -9c-41 0 -71 28 -71 74c0 54 37 88 81 88
c43 0 67 -29 67 -67c0 -32 -16 -49 -29 -48c-8 0 -10 9 -7 27l8 51c-7 3 -20 6 -32 6c-39 0 -64 -30 -64 -64c0 -23 14 -36 31 -36c15 0 27 7 36 22h2c1 -15 10 -22 22 -22c29 0 51 24 51 65c0 46 -34 80 -82 80zM206 221c5 0 9 -1 11 -2l-5 -28c-2 -16 -15 -33 -27 -33
c-11 0 -17 8 -17 19c0 24 16 44 38 44z" />
    <glyph glyph-name="water-transportation" unicode="&#xf3e7;" horiz-adv-x="508" 
d="M242 448h20v-51h72c6 0 10 -4 10 -10v-52h51c6 0 11 -4 11 -10v-81l45 -16c21 -7 32 -30 22 -50v-1l-37 -79v-89c13 -8 32 -11 43 -11c6 0 11 2 15 3c1 0 3 1 4 1c6 0 10 -5 10 -11c0 -4 -2 -8 -6 -9c-7 -3 -15 -4 -23 -4c-14 0 -34 4 -52 14h-1c-1 0 -4 1 -5 2
c-18 -11 -39 -16 -54 -16s-38 5 -57 17c-19 -12 -41 -17 -56 -17s-37 5 -56 17c-19 -12 -42 -17 -57 -17s-37 5 -56 17v0c-1 -1 -2 -2 -3 -2c-18 -11 -38 -15 -53 -15c-8 0 -15 1 -19 1v0c-6 0 -10 4 -10 10s4 10 10 10v0c6 0 13 -1 19 -1c10 0 26 3 39 9v90l-38 80v0v1
c-8 20 1 43 22 50l46 16v81c0 6 5 10 11 10h51v52v0c0 5 4 10 9 10h1v0h72v51zM180 376v-51c0 -6 -4 -10 -10 -10h-51v-64l130 43h1h1h4l130 -44v65h-51c-6 0 -10 4 -10 10v51h-144zM252 274l-193 -65c-10 -3 -15 -14 -11 -23l39 -82c1 -1 1 -3 1 -4v0v-85c1 0 3 -1 4 -2
c13 -11 35 -15 49 -15s37 4 50 15c2 1 5 3 7 3s4 -2 6 -3c13 -11 36 -15 50 -15s37 4 50 15c2 1 4 3 6 3s5 -2 7 -3c13 -11 36 -15 50 -15c13 0 36 5 49 15v87c0 1 0 3 1 4l38 82v0c4 9 -1 20 -11 23zM165 192c8 0 15 -12 15 -26s-7 -25 -15 -25s-15 11 -15 25s7 26 15 26z
M339 192c8 0 15 -12 15 -26s-7 -25 -15 -25s-15 11 -15 25s7 26 15 26zM84 -25v0h1c2 0 5 -2 7 -3c13 -11 35 -15 49 -15s37 4 50 15c2 1 5 3 7 3s4 -2 6 -3c13 -11 36 -15 50 -15s37 4 50 15c2 1 4 3 6 3s5 -2 7 -3c13 -11 36 -15 50 -15s36 4 49 15c2 1 5 3 7 3s5 -2 7 -3
c13 -11 35 -15 49 -15c6 0 11 2 15 3c1 0 3 1 4 1c6 0 10 -5 10 -11c0 -4 -2 -8 -6 -9c-7 -3 -15 -4 -23 -4c-15 0 -37 5 -56 17c-19 -12 -41 -17 -56 -17s-38 5 -57 17c-19 -12 -41 -17 -56 -17s-37 5 -56 17c-19 -12 -42 -17 -57 -17s-37 5 -56 17
c-19 -12 -41 -17 -56 -17c-8 0 -15 1 -19 1v0c-6 0 -10 4 -10 10s4 10 10 10v0c6 0 13 -1 19 -1c14 0 37 4 50 15c1 1 3 3 5 3z" />
    <glyph glyph-name="thumb-up" unicode="&#xf39d;" horiz-adv-x="372" 
d="M208 427c17 -29 -2 -65 -17 -96c-13 -27 -11 -57 23 -53c41 5 57 8 92 10s46 -12 46 -25c0 -21 -7 -24 -7 -32s27 -3 27 -30s-21 -25 -21 -33s20 -11 20 -33s-27 -24 -27 -33s9 -12 9 -25s-29 -43 -127 -43c-168 0 -148 41 -226 41v148c41 0 39 36 67 64s82 90 93 140
c7 33 37 18 48 0z" />
    <glyph glyph-name="cherry-filled" unicode="&#xf1af;" horiz-adv-x="451" 
d="M298 428c1 0 11 -2 20 -14c3 -3 3 -8 1 -11c-3 -4 -9 -11 -17 -17c17 -3 40 -9 62 -22s32 -34 41 -51c4 -8 9 -16 13 -22c2 -2 2 -5 2 -8c-1 -3 -3 -5 -5 -7c-14 -6 -35 -12 -58 -12c-19 0 -40 5 -57 17c-35 26 -39 66 -38 86c-38 -21 -101 -68 -115 -159
c-5 -2 -11 -4 -14 -6c-2 1 -5 3 -8 4c15 118 107 173 143 189c6 15 21 29 23 31c2 1 4 2 7 2zM249 320c3 -11 9 -23 18 -34c0 -31 4 -58 10 -80c-4 -5 -8 -9 -10 -12h-4h-4c-9 32 -16 78 -10 126zM341 212c30 2 71 -8 97 -62c34 -69 -5 -151 -61 -178
c-19 -9 -41 -15 -61 -15c-28 0 -53 10 -76 26c28 27 47 64 47 106c0 40 -13 67 -29 86h12h7c1 0 4 3 5 5c5 7 12 17 26 24c7 4 19 7 33 8zM92 192c15 0 27 -6 35 -10c2 -1 6 -3 7 -3s4 2 6 3c7 4 19 10 35 10c26 0 92 -18 92 -104c-1 -75 -72 -132 -134 -132
c-72 0 -133 61 -133 132c0 97 70 104 92 104z" />
    <glyph glyph-name="support" unicode="&#xf386;" 
d="M83 444c50 12 109 -4 146 -41c35 -35 32 -72 12 -108c-3 -5 -8 -16 6 -30c76 -76 244 -226 247 -229c23 -23 25 -61 2 -84s-61 -21 -84 2c-3 3 -149 167 -227 245c-15 15 -29 9 -35 6c-35 -19 -71 -20 -105 14c-37 37 -53 96 -41 146l88 -88s26 1 52 27s27 52 27 52z
M474 0c0 14 -12 26 -26 26s-26 -12 -26 -26s12 -26 26 -26s26 12 26 26z" />
    <glyph glyph-name="dribbble" unicode="&#xf224;" horiz-adv-x="384" 
d="M192 384c106 0 192 -86 192 -192s-86 -192 -192 -192s-192 86 -192 192s86 192 192 192zM192 352c-13 0 -24 -1 -36 -4c15 -20 36 -51 59 -93c33 12 55 28 69 41c6 6 11 12 14 16c-28 25 -65 40 -106 40zM124 337c-45 -21 -77 -62 -88 -111c24 0 83 3 148 20
c-24 42 -47 74 -60 91zM320 288c-4 -5 -8 -9 -14 -14c-16 -16 -40 -34 -76 -48c4 -9 8 -17 12 -26c17 2 34 2 48 2c27 0 48 -3 62 -6c-1 35 -12 66 -32 92zM198 216c-76 -21 -144 -22 -166 -22v-2c0 -40 15 -76 39 -104c21 29 71 87 139 106c-4 8 -8 15 -12 22zM290 171
c-10 0 -23 -1 -36 -2c13 -33 24 -70 30 -108c34 24 59 60 66 103c-12 3 -31 7 -60 7zM222 164c-63 -16 -112 -76 -128 -99c27 -21 61 -33 98 -33c22 0 43 4 62 12c-6 42 -18 83 -32 120z" />
    <glyph glyph-name="cloud" unicode="&#xf1df;" horiz-adv-x="448" 
d="M224 336c63 0 114 -42 134 -98c50 -4 90 -43 90 -94c0 -53 -43 -96 -96 -96h-256c-53 0 -96 43 -96 96c0 35 20 63 48 80c0 35 29 64 64 64c2 0 4 -1 6 -1c26 29 64 49 106 49zM224 304c-36 0 -67 -18 -88 -44l-6 -8l-10 3c-3 1 -6 1 -8 1c-18 0 -32 -14 -32 -32v-4
l2 -12l-11 -5c-23 -10 -39 -32 -39 -59c0 -36 28 -64 64 -64h256c36 0 64 28 64 64s-28 64 -64 64c1 0 0 0 -3 0l-13 -1l-4 13c-12 48 -56 84 -108 84z" />
    <glyph glyph-name="center-direction-filled" unicode="&#xf19a;" horiz-adv-x="513" 
d="M255 448h1h1v0c11 0 20 -9 20 -20v0v-12c108 -10 194 -96 204 -204h12v0c11 0 20 -9 20 -20s-9 -20 -20 -20v0h-12c-10 -108 -96 -194 -204 -204v-12v0c0 -11 -9 -20 -20 -20s-20 9 -20 20v0v12c-108 10 -194 96 -204 204h-12v-1c-11 0 -21 10 -21 21s9 19 20 20l1 1v-1
h12c10 108 96 194 204 204v12v0c0 10 8 19 18 20zM237 375c-86 -9 -154 -77 -163 -163h9v0c11 0 21 -9 21 -20s-10 -20 -21 -20v0h-9c9 -86 77 -154 163 -163v9v0c0 10 8 20 18 21h1h1v0c11 0 20 -10 20 -21v0v-9c86 9 154 77 163 163h-9l-1 -1c-11 0 -20 10 -20 21
s8 19 19 20l1 1l1 -1h9c-9 86 -77 154 -163 163v-9v0c0 -11 -9 -21 -20 -21s-20 10 -20 21v0v9zM257 264c40 0 72 -32 72 -72s-32 -72 -72 -72s-72 32 -72 72s32 72 72 72z" />
    <glyph glyph-name="to-do" unicode="&#xf3a2;" 
d="M143 449h1c6 0 10 -5 10 -11c0 -2 -1 -4 -2 -6l-82 -123c-2 -3 -5 -4 -8 -4s-7 1 -9 3l-51 62c-1 2 -2 4 -2 6c0 6 4 11 10 11c3 0 6 -2 8 -4l42 -51l75 112c1 2 4 3 6 4h1zM205 376h307v-20h-307v20zM143 275h1c6 0 10 -5 10 -11c0 -2 -1 -4 -2 -6l-82 -123
c-2 -3 -5 -5 -8 -5s-7 2 -9 4l-51 62c-1 2 -2 4 -2 6c0 6 4 10 10 10c3 0 6 -1 8 -3l42 -51l75 111c1 2 4 4 6 5h1zM205 202h307v-20h-307v20zM143 80h1c6 0 10 -4 10 -10c0 -2 -1 -5 -2 -7l-82 -123c-2 -3 -5 -4 -8 -4s-7 2 -9 4l-51 61c-1 2 -2 5 -2 7c0 6 4 10 10 10
c3 0 6 -2 8 -4l42 -50l75 111c1 2 4 3 6 4l1 1h1zM205 8h307v-21h-307v21z" />
    <glyph glyph-name="mind-map-filled" unicode="&#xf2c4;" 
d="M61 448c34 0 62 -27 62 -61c0 -13 -5 -26 -12 -36l80 -80c18 14 40 23 65 23c9 0 17 -1 25 -3l16 42c-18 11 -31 31 -31 54c0 34 28 61 62 61s61 -27 61 -61s-27 -62 -61 -62c-4 0 -8 0 -12 1l-16 -42c34 -17 58 -52 58 -92v-11l35 -8c9 23 32 39 58 39
c34 0 61 -27 61 -61s-27 -61 -61 -61s-62 27 -62 61v3l-35 7c-7 -23 -23 -41 -42 -54l27 -51c6 2 12 3 19 3c34 0 62 -28 62 -62s-28 -61 -62 -61s-61 27 -61 61c0 20 9 38 24 49l-27 51c-12 -5 -24 -7 -38 -7c-29 0 -54 12 -73 31l-67 -53c5 -9 7 -19 7 -30
c0 -34 -28 -61 -62 -61s-61 27 -61 61s27 62 61 62c16 0 31 -6 42 -16l67 53c-10 16 -16 35 -16 55c0 25 9 47 23 65l-80 80c-10 -7 -23 -12 -36 -12c-34 0 -61 28 -61 62s27 61 61 61z" />
    <glyph glyph-name="delete-2" unicode="&#xf20d;" horiz-adv-x="327" 
d="M23 356l141 -141l140 141l23 -24l-141 -140l141 -140l-23 -24l-140 141l-141 -141l-23 24l140 140l-140 140z" />
    <glyph glyph-name="delete-3" unicode="&#xf20e;" horiz-adv-x="383" 
d="M15 384l177 -177l177 177l14 -15l-177 -177l177 -177l-14 -15l-177 177l-177 -177l-15 15l177 177l-177 177z" />
    <glyph glyph-name="two-hearts" unicode="&#xf3c5;" horiz-adv-x="511" 
d="M121 388c34 0 61 -18 80 -35c9 -8 11 -10 16 -16c5 6 6 8 15 16c19 17 47 35 81 35s64 -12 86 -33s34 -52 34 -87c0 -15 -2 -29 -6 -42c9 1 18 0 27 -3c46 -15 67 -59 52 -105c-17 -51 -67 -70 -117 -89c-23 -9 -48 -19 -68 -31c-3 -2 -7 -2 -11 -1h-1c-4 1 -8 4 -9 8
c-7 18 -16 35 -27 52c-15 -13 -29 -26 -41 -40c-3 -4 -10 -8 -15 -8h-1c-5 0 -12 4 -15 8c-33 39 -81 72 -123 109s-78 82 -78 142c0 35 12 66 34 87s53 33 87 33zM121 348c-25 0 -45 -7 -59 -21s-23 -33 -23 -59c0 -44 27 -77 66 -112c34 -31 76 -63 112 -101
c11 12 23 24 35 35c-24 39 -42 78 -28 122c15 46 59 68 105 53c26 -9 41 -34 50 -51c9 17 15 34 15 54c0 26 -8 45 -22 59s-34 21 -59 21c-19 0 -39 -12 -55 -25s-25 -26 -25 -26c-3 -5 -10 -9 -16 -9s-13 4 -16 9c0 0 -10 13 -26 26s-35 25 -54 25z" />
    <glyph glyph-name="coins" unicode="&#xf1e4;" horiz-adv-x="505" 
d="M351 444c85 0 154 -38 154 -85s-69 -85 -154 -85s-154 38 -154 85s69 85 154 85zM505 334v-34c0 -47 -69 -85 -154 -85c-23 0 -44 3 -64 8c-16 10 -35 18 -56 24c-21 15 -34 33 -34 53v34c0 -47 69 -85 154 -85s154 38 154 85zM505 275v-34c0 -47 -69 -85 -154 -85
c-5 0 -10 1 -15 1c-2 13 -7 24 -15 35c10 -1 20 -2 30 -2c85 0 154 38 154 85zM154 228c85 0 154 -38 154 -85s-69 -85 -154 -85s-154 38 -154 85s69 85 154 85zM505 216v-34c0 -47 -69 -85 -154 -85c-5 0 -10 1 -14 1v20c0 3 -1 6 -2 9c0 1 1 4 1 5c5 0 10 -1 15 -1
c85 0 154 38 154 85zM505 157v-34c0 -47 -69 -85 -154 -85c-5 0 -10 1 -14 1v19c0 3 -1 7 -2 10c0 1 1 4 1 5c5 0 10 -1 15 -1c85 0 154 38 154 85zM308 118v-34c0 -47 -69 -85 -154 -85s-154 38 -154 85v33c0 -47 69 -84 154 -84s154 38 154 85zM308 58v-33
c0 -47 -69 -85 -154 -85s-154 38 -154 85v33c0 -47 69 -84 154 -84s154 37 154 84z" />
    <glyph glyph-name="shipped-3" unicode="&#xf33e;" 
d="M29 366h259c16 0 29 -14 29 -30v-44c3 1 7 2 11 2h82c20 0 34 -15 43 -26v0h1l42 -56v-1s4 -6 8 -14s8 -18 8 -30v-98c0 -9 -4 -16 -9 -21s-13 -10 -22 -10h-11c-5 -29 -30 -51 -60 -51s-56 22 -61 51h-42h-113c-5 -29 -31 -51 -61 -51s-55 22 -60 51h-42
c-17 0 -31 14 -31 31v268c0 16 13 29 29 29zM29 346c-5 0 -9 -4 -9 -9v-268c0 -6 5 -10 11 -10h42c5 29 30 51 60 51s56 -22 61 -51h103v205v72c0 4 -5 10 -9 10h-259zM235 299l15 -14l-7 -8l-90 -98l-7 -7l-7 6l-54 47l-7 7l13 15l8 -6l46 -41l83 91zM328 274
c-2 0 -5 -2 -7 -4s-4 -4 -4 -6v-205h32c5 29 31 51 61 51s55 -22 60 -51h11c2 0 5 1 7 3s4 5 4 7v82h-93c-9 0 -16 4 -21 9s-9 13 -9 22v92h-41zM389 274v-92c0 -2 2 -5 4 -7s4 -3 6 -3h91c-1 5 -2 11 -5 16c-3 6 -6 11 -6 11v0l-42 56c-7 9 -19 19 -27 19h-21zM133 90
c-23 0 -41 -18 -41 -41s18 -41 41 -41s41 18 41 41s-18 41 -41 41zM410 90c-23 0 -41 -18 -41 -41s18 -41 41 -41s41 18 41 41s-18 41 -41 41z" />
    <glyph glyph-name="shipped-2" unicode="&#xf33d;" 
d="M0 352h16h304h16v-16v-48h128h12l3 -11l32 -96l1 -3v-2v-112v-16h-16h-34c-7 -28 -32 -48 -62 -48s-55 20 -62 48h-18h-130c-7 -28 -32 -48 -62 -48s-55 20 -62 48h-50h-16v16v272v16zM32 320v-240h34c7 28 32 48 62 48s55 -20 62 -48h114v192v16v32h-272zM244 284
l24 -24l-96 -96l-12 -10l-12 10l-64 64l24 24l52 -53zM336 256v-176h2c7 28 32 48 62 48s55 -20 62 -48h18v94l-28 82h-116zM128 96c-18 0 -32 -14 -32 -32s14 -32 32 -32s32 14 32 32s-14 32 -32 32zM400 96c-18 0 -32 -14 -32 -32s14 -32 32 -32s32 14 32 32
s-14 32 -32 32z" />
    <glyph glyph-name="delete-4" unicode="&#xf20f;" horiz-adv-x="332" 
d="M30 358l136 -136l136 136l30 -30l-136 -136l136 -136l-30 -30l-136 136l-136 -136l-30 30l136 136l-136 136z" />
    <glyph glyph-name="camera" unicode="&#xf18d;" 
d="M207 389h138c13 0 23 -6 27 -14l26 -45h18c53 0 96 -43 96 -96v-163c0 -53 -43 -96 -96 -96h-320c-53 0 -96 43 -96 96v200c0 26 16 47 39 55v4c0 11 9 20 20 20h39c11 0 20 -9 20 -20h36l25 45c4 8 14 14 28 14zM79 320c-16 0 -30 -14 -30 -30s14 -29 30 -29
s29 13 29 29s-13 30 -29 30zM276 311c-77 0 -139 -62 -139 -139s62 -139 139 -139s139 62 139 139s-62 139 -139 139zM276 267c52 0 94 -43 94 -95s-42 -94 -94 -94s-95 42 -95 94s43 95 95 95z" />
    <glyph glyph-name="music" unicode="&#xf2d0;" horiz-adv-x="427" 
d="M405 448c12 0 22 -9 22 -21v-43v-299c0 -35 -34 -72 -75 -82s-75 11 -75 46s34 72 75 82c11 3 22 4 32 2v222l-235 -84v-250v-1c-1 -35 -33 -71 -74 -81s-75 11 -75 46s34 72 75 82c11 3 22 4 32 2v209v42v1c0 12 9 24 21 28z" />
    <glyph glyph-name="courses-filled" unicode="&#xf1fc;" 
d="M20 448h124c11 0 20 -9 20 -21v-471c0 -11 -9 -20 -20 -20h-124c-11 0 -20 9 -20 21v470c0 12 9 21 20 21zM368 448h124c11 0 20 -9 20 -21v-470c0 -12 -9 -21 -20 -21h-124c-11 0 -20 9 -20 21v470c0 12 9 21 20 21zM31 366c-6 0 -11 -4 -11 -10s5 -10 11 -10h102
c6 0 10 4 10 10s-4 10 -10 10h-102zM379 366c-6 0 -10 -4 -10 -10s4 -10 10 -10h102c6 0 11 4 11 10s-5 10 -11 10h-102zM194 356h124c11 0 20 -10 20 -22v-377c0 -12 -9 -21 -20 -21h-124c-11 0 -20 9 -20 21v377c0 12 9 22 20 22zM205 274c-6 0 -10 -4 -10 -10
s4 -11 10 -11h102c6 0 10 5 10 11s-4 10 -10 10h-102zM31 69c-6 0 -11 -4 -11 -10s5 -10 11 -10h102c6 0 10 4 10 10s-4 10 -10 10h-102zM379 69c-6 0 -10 -4 -10 -10s4 -10 10 -10h102c6 0 11 4 11 10s-5 10 -11 10h-102zM31 28c-6 0 -11 -4 -11 -10s5 -10 11 -10h102
c6 0 10 4 10 10s-4 10 -10 10h-102zM379 28c-6 0 -10 -4 -10 -10s4 -10 10 -10h102c6 0 11 4 11 10s-5 10 -11 10h-102zM205 18c-6 0 -10 -4 -10 -10s4 -11 10 -11h102c6 0 10 5 10 11s-4 10 -10 10h-102z" />
    <glyph glyph-name="sale-2" unicode="&#xf325;" 
d="M204 446c3 0 5 -1 8 -2h1v0l43 -21l45 21v0c11 5 24 1 32 -8v0v0l29 -40l49 -1v0c13 0 23 -10 25 -22l7 -49l43 -24v0v0c9 -6 15 -18 12 -30v0l-1 -1l-15 -46l26 -42h-1c7 -10 6 -24 -3 -32v0l-1 -1l-34 -34l3 -48v-1v0v0c1 -12 -6 -24 -18 -27l-47 -13l-19 -46
c-5 -11 -18 -17 -29 -15v0v0l-49 10l-37 -31v0h-1c-4 -3 -10 -5 -16 -5c-5 0 -11 1 -16 5v0v0l-37 31l-48 -10h-1v0c-12 -3 -24 4 -29 15v0l-19 46l-48 14c-12 3 -19 15 -19 26v0v1l4 50l-36 34v0c-8 8 -10 22 -3 32v0l26 42l-16 47v0c-3 12 2 24 11 30h1v0l43 25l7 48
c2 12 12 20 23 22h1h1l50 1l29 38l1 1v0c3 5 9 8 14 9c3 1 6 1 9 1zM200 426c-1 0 -2 -1 -3 -2v0v-1l-33 -43l-3 -4h-5l-54 -1c-3 0 -6 -2 -6 -4v0l-8 -54l-1 -4l-4 -3l-46 -26c-3 -2 -4 -4 -3 -7v0l17 -51l2 -5l-3 -4l-29 -46v0v0c-1 -2 -1 -5 1 -7l39 -37l3 -4v-5l-4 -53
c0 -3 2 -5 4 -6l52 -16l4 -1l2 -5l22 -50c1 -3 3 -4 5 -3v0h1l53 11l5 1l4 -3l40 -33c1 -1 3 -2 4 -2c2 0 3 1 5 2l40 33l4 3l5 -1l52 -11h1c3 0 5 0 6 3l21 50l2 5l5 1l51 15c2 1 4 3 4 4v1v0l-4 54l-1 5l4 4l39 38v0h1c2 2 2 3 0 5v1h-1l-28 46l-3 4l2 5l17 51
c1 3 0 5 -3 7l-46 26l-5 2l-1 5l-8 54c0 2 -3 4 -4 4v0l-55 2l-5 1l-2 3l-32 43v0c-2 2 -6 4 -7 3v0l-49 -24l-5 -2l-4 2l-48 23c-2 1 -3 1 -4 1zM128 238c32 0 35 -23 35 -29h-15c0 6 -4 16 -20 16c-15 0 -16 -10 -16 -12c0 -22 54 -7 54 -41c0 -27 -32 -28 -36 -28
c-35 0 -37 25 -37 32h15c0 -4 1 -19 22 -19c18 0 20 13 20 14c0 23 -54 7 -54 41c0 6 3 26 32 26zM210 237h17l34 -90h-16l-9 24h-36l-8 -24h-17zM276 237h15v-76h46v-13h-61v89zM355 237h64v-13h-49v-24h45v-13h-45v-27h50v-13h-65v90zM219 222l-15 -39h28z" />
    <glyph glyph-name="checked-2" unicode="&#xf1a1;" horiz-adv-x="473" 
d="M236 428c130 0 237 -106 237 -236s-107 -236 -237 -236s-236 106 -236 236s106 236 236 236zM236 389c-109 0 -197 -88 -197 -197s88 -197 197 -197s197 88 197 197s-88 197 -197 197zM319 309c3 0 6 0 8 -1l19 -14c8 -4 11 -9 7 -15l-119 -174c-4 -6 -10 -8 -14 -8
c-6 0 -11 4 -15 6l-69 69c-4 4 -4 12 0 18l18 18c4 4 11 4 15 -2l46 -45l96 143c2 3 5 5 8 5z" />
    <glyph glyph-name="windows8-2" unicode="&#xf3fe;" horiz-adv-x="352" 
d="M352 370v-18v-320v-18l-18 2l-320 45l-14 1v14v232v14l14 1l320 45zM320 334l-144 -20v-106h144v126zM144 309l-112 -15v-86h112v101zM32 176v-86l112 -15v101h-112zM176 176v-106l144 -20v126h-144z" />
    <glyph glyph-name="shopping-cart" unicode="&#xf346;" horiz-adv-x="427" 
d="M0 405h64h15l5 -14l9 -28h312c15 0 26 -15 20 -30l-66 -150c-2 -9 -11 -12 -20 -12h-200l-32 -42v-1h277v-43h-277c-17 0 -31 10 -38 23s-7 31 3 45h1l32 43l-56 167h-49v42zM107 64c24 0 42 -19 42 -43s-18 -42 -42 -42s-43 18 -43 42s19 43 43 43zM341 64
c24 0 43 -19 43 -43s-19 -42 -43 -42s-42 18 -42 42s18 43 42 43z" />
    <glyph glyph-name="diamond" unicode="&#xf211;" horiz-adv-x="504" 
d="M150 418l1 -1h1h98h4h98c1 0 1 1 2 1s1 -1 2 -1h3l1 -1l2 -1v-1l1 -1v0l1 -1l134 -141l6 -7l-5 -7l-236 -303v0v0c-1 -3 -3 -7 -6 -8l-5 -6l-4 6c-3 1 -5 4 -6 7l-237 304l-5 7l6 7l135 142l1 1v0l1 1v0l1 1l1 1h3h1zM158 397l-21 -100l92 100h-71zM276 397l92 -99
l-22 99h-70zM252 392l-110 -118h220zM372 374l21 -100h74zM132 373l-95 -99h74zM35 253l176 -227l-99 227h-77zM134 253l118 -271l118 271h-236zM392 253l-99 -227l177 227h-78z" />
    <glyph glyph-name="music-5" unicode="&#xf2d4;" horiz-adv-x="296" 
d="M276 274c-72 0 -59 31 -110 31c-8 0 -12 -4 -12 -17v-220s0 -81 -70 -81c-76 0 -84 36 -84 61c0 36 26 52 84 52c40 0 49 15 49 38v239c0 10 5 20 21 20c68 0 50 -31 122 -31c12 0 20 -4 20 -19v-55c0 -19 -20 -18 -20 -18z" />
    <glyph glyph-name="music-4" unicode="&#xf2d3;" horiz-adv-x="384" 
d="M384 388v-20v-256c0 -35 -29 -64 -64 -64s-64 29 -64 64s29 64 64 64c12 0 23 -3 32 -9v118l-224 -42v-179c0 -35 -29 -64 -64 -64s-64 29 -64 64s29 64 64 64c12 0 23 -3 32 -9v201v14l13 2l256 48zM352 349l-224 -42v-32l224 42v32zM320 144c-18 0 -32 -14 -32 -32
s14 -32 32 -32s32 14 32 32s-14 32 -32 32zM64 96c-18 0 -32 -14 -32 -32s14 -32 32 -32s32 14 32 32s-14 32 -32 32z" />
    <glyph glyph-name="music-3" unicode="&#xf2d2;" horiz-adv-x="460" 
d="M412 445c26 8 48 -8 48 -35v-322c0 -42 -42 -81 -94 -87s-94 20 -94 62s42 81 94 87c35 4 55 -7 55 -7v0v158s-22 13 -22 13l-193 -61s-22 -7 -22 -26v-197c0 -42 -38 -81 -90 -88s-94 18 -94 60s42 82 94 89c35 5 51 -6 51 -6v3v228c0 27 21 54 48 62z" />
    <glyph glyph-name="music-2" unicode="&#xf2d1;" horiz-adv-x="427" 
d="M377 405c26 2 50 -16 50 -42v-79v-199c0 -36 -34 -72 -75 -83s-75 11 -75 47s34 72 75 83c11 3 22 4 32 2v145l-235 -32v-183c0 -36 -33 -72 -74 -83s-75 11 -75 47s34 72 75 83c11 2 22 2 32 0v130v90c0 21 15 40 36 42z" />
    <glyph glyph-name="mind-map-2" unicode="&#xf2c2;" horiz-adv-x="427" 
d="M53 405c29 0 54 -24 54 -53c0 -8 -2 -15 -5 -22l53 -61c11 5 24 8 37 8c11 0 21 -2 31 -6l39 56c-4 7 -6 16 -6 25c0 29 24 53 53 53s54 -24 54 -53s-25 -53 -54 -53c-5 0 -9 1 -13 2l-39 -54c7 -8 13 -18 16 -29l50 3c8 20 27 35 50 35c29 0 54 -24 54 -53
s-25 -54 -54 -54c-21 0 -38 13 -47 30l-51 -4c-3 -14 -8 -26 -17 -37l40 -54c4 1 7 1 11 1c29 0 54 -24 54 -53s-25 -53 -54 -53s-53 24 -53 53c0 10 2 19 7 27l-40 54c-10 -4 -20 -6 -31 -6c-13 0 -26 3 -37 8l-53 -61c3 -7 5 -14 5 -22c0 -29 -25 -53 -54 -53
s-53 24 -53 53s24 53 53 53c6 0 12 0 17 -2l52 60c-10 14 -15 31 -15 49s5 35 15 49l-52 60c-5 -2 -11 -2 -17 -2c-29 0 -53 24 -53 53s24 53 53 53z" />
    <glyph glyph-name="shipped-filled" unicode="&#xf33f;" 
d="M29 366h259c16 0 29 -14 29 -30v-298h-103c0 3 1 8 1 11c0 45 -37 82 -82 82s-82 -37 -82 -82c0 -3 1 -8 1 -11h-21c-17 0 -31 14 -31 31v267c0 12 9 28 29 30zM235 299l-90 -99l-54 47l-13 -15l68 -60l104 113zM338 294h31v-112c0 -16 14 -31 30 -31h113v-82
c0 -12 -9 -24 -21 -29c0 3 1 6 1 9c0 45 -37 82 -82 82c-31 0 -58 -17 -72 -42v205zM389 294h21c20 0 35 -16 43 -26l43 -56c2 -2 14 -21 16 -40h-113c-5 0 -10 5 -10 10v112zM133 110c34 0 62 -27 62 -61c0 -3 0 -8 -1 -11c-5 -29 -31 -51 -61 -51s-55 22 -60 51
c-1 3 -1 8 -1 11v6c1 12 6 24 14 33c1 2 3 3 4 4c11 11 26 18 43 18zM410 110c34 0 61 -27 61 -61s-27 -62 -61 -62s-62 28 -62 62s28 61 62 61z" />
    <glyph glyph-name="upload-to-cloud" unicode="&#xf3cd;" horiz-adv-x="510" 
d="M256 363c81 0 148 -55 167 -130c51 -6 89 -52 87 -105c0 -60 -47 -107 -107 -107h-85v43h85c36 0 64 28 64 64c0 30 -21 58 -53 62l-28 4l-6 28c-13 58 -64 98 -124 98c-47 0 -90 -25 -113 -66l-11 -17l-19 -4c-41 -6 -70 -41 -70 -84c0 -47 38 -85 85 -85h64v-43h-64
c-70 0 -128 58 -128 128c0 64 47 115 107 126c30 53 85 88 149 88zM256 241l85 -113h-64v-149h-42v149h-64z" />
    <glyph glyph-name="sleeping" unicode="&#xf359;" horiz-adv-x="505" 
d="M252 444c139 0 253 -113 253 -252s-114 -252 -253 -252s-252 113 -252 252s113 252 252 252zM252 405c-117 0 -213 -96 -213 -213s96 -213 213 -213s213 96 213 213s-96 213 -213 213zM225 191c4 0 6 -1 6 -4c0 -11 -36 -33 -57 -33s-58 23 -58 33s37 -5 58 -5
c16 0 40 9 51 9zM279 191c11 0 36 -9 52 -9c21 0 59 15 59 5s-38 -33 -59 -33s-58 22 -58 33c0 3 2 4 6 4zM252 92c36 0 57 -19 57 -19s-17 -16 -57 -16s-56 16 -56 16s20 19 56 19z" />
    <glyph glyph-name="cloud-filled" unicode="&#xf1e2;" 
d="M431 220c45 -5 81 -43 81 -90c0 -50 -41 -92 -91 -92h-322c-55 0 -99 44 -99 99c0 42 26 79 65 93c3 37 34 67 72 67c14 0 27 -4 39 -12c22 45 70 75 121 75c74 0 135 -60 135 -134c0 -2 -1 -4 -1 -6z" />
    <glyph glyph-name="launched-rocket" unicode="&#xf29b;" horiz-adv-x="197" 
d="M98 448c0 0 79 -59 79 -138c0 -34 -8 -101 -16 -162l36 -45v-49l-46 18c-2 -10 -9 -18 -19 -18h-69c-10 0 -18 7 -20 17l-43 -17v49l34 44c-7 61 -14 129 -14 163c0 79 78 138 78 138zM98 350c-22 0 -39 -18 -39 -40s17 -39 39 -39s40 17 40 39s-18 40 -40 40zM61 34h18
c0 -4 -2 -7 -2 -11c0 -14 20 -38 20 -38s19 24 19 38c0 4 0 7 -2 11h18c4 -8 6 -15 2 -23c0 -28 -39 -75 -39 -75s-40 47 -40 75c0 8 2 15 6 23z" />
    </font>
</defs>
</svg>
